<?xml version="1.0" encoding="UTF-8" standalone="no"?>
<!-- Created with Inkscape (http://www.inkscape.org/) -->

<svg
   width="19.362mm"
   height="19.362mm"
   viewBox="0 0 73.179213 73.179214"
   version="1.1"
   id="svg1"
   xml:space="preserve"
   inkscape:export-batch-path="Indice TCL"
   inkscape:export-batch-name=""
   inkscape:version="1.4.2 (f4327f4, 2025-05-13)"
   sodipodi:docname="indice tcl pack.svg"
   xmlns:inkscape="http://www.inkscape.org/namespaces/inkscape"
   xmlns:sodipodi="http://sodipodi.sourceforge.net/DTD/sodipodi-0.dtd"
   xmlns="http://www.w3.org/2000/svg"
   xmlns:svg="http://www.w3.org/2000/svg"><sodipodi:namedview
     id="namedview1"
     pagecolor="#ffffff"
     bordercolor="#999999"
     borderopacity="1"
     inkscape:showpageshadow="2"
     inkscape:pageopacity="0"
     inkscape:pagecheckerboard="0"
     inkscape:deskcolor="#d1d1d1"
     inkscape:document-units="mm"
     inkscape:zoom="0.5"
     inkscape:cx="717"
     inkscape:cy="247"
     inkscape:window-width="1920"
     inkscape:window-height="1057"
     inkscape:window-x="-8"
     inkscape:window-y="-8"
     inkscape:window-maximized="1"
     inkscape:current-layer="g90"><inkscape:page
       x="0"
       y="0"
       width="73.179207"
       height="73.179207"
       id="page1"
       margin="0"
       bleed="0" /></sodipodi:namedview><defs
     id="defs1"><font
       id="EmbeddedFont_1-5"
       horiz-adv-x="2048"
       horiz-origin-x="0"
       horiz-origin-y="0"
       vert-origin-x="512"
       vert-origin-y="768"
       vert-adv-y="1024">
   <font-face
   font-family="Liberation Sans embedded"
   units-per-em="2048"
   font-weight="bold"
   font-style="normal"
   ascent="1852"
   descent="423"
   id="font-face2-1" />
   <missing-glyph
   horiz-adv-x="2048"
   d="M 0,0 L 2047,0 2047,2047 0,2047 0,0 Z"
   id="missing-glyph2-7" />
   <glyph
   unicode="1"
   horiz-adv-x="950"
   d="M 129,0 L 129,209 478,209 478,1170 140,959 140,1180 493,1409 759,1409 759,209 1082,209 1082,0 129,0 Z"
   id="glyph2-1" />
  </font><font
       id="EmbeddedFont_1-4"
       horiz-adv-x="2048"
       horiz-origin-x="0"
       horiz-origin-y="0"
       vert-origin-x="512"
       vert-origin-y="768"
       vert-adv-y="1024">
   <font-face
   font-family="Liberation Sans embedded"
   units-per-em="2048"
   font-weight="bold"
   font-style="normal"
   ascent="1852"
   descent="423"
   id="font-face2-2" />
   <missing-glyph
   horiz-adv-x="2048"
   d="M 0,0 L 2047,0 2047,2047 0,2047 0,0 Z"
   id="missing-glyph2-77" />
   <glyph
   unicode="2"
   horiz-adv-x="983"
   d="M 71,0 L 71,195 C 108,276 160,354 228,431 295,508 380,588 483,671 582,751 651,817 691,869 730,921 750,972 750,1022 750,1145 688,1206 565,1206 505,1206 459,1190 428,1158 396,1125 375,1077 366,1012 L 83,1028 C 99,1159 148,1258 230,1327 311,1396 422,1430 563,1430 715,1430 832,1395 913,1326 994,1257 1035,1159 1035,1034 1035,968 1022,908 996,855 970,802 937,753 896,708 855,663 810,620 761,581 711,542 663,503 616,466 569,429 527,391 489,353 450,315 422,274 403,231 L 1057,231 1057,0 71,0 Z"
   id="glyph2-9" />
   <glyph
   unicode="1"
   horiz-adv-x="950"
   d="M 129,0 L 129,209 478,209 478,1170 140,959 140,1180 493,1409 759,1409 759,209 1082,209 1082,0 129,0 Z"
   id="glyph3" />
  </font><font
       id="EmbeddedFont_1-6"
       horiz-adv-x="2048"
       horiz-origin-x="0"
       horiz-origin-y="0"
       vert-origin-x="512"
       vert-origin-y="768"
       vert-adv-y="1024">
   <font-face
   font-family="Liberation Sans embedded"
   units-per-em="2048"
   font-weight="bold"
   font-style="normal"
   ascent="1852"
   descent="423"
   id="font-face2-15" />
   <missing-glyph
   horiz-adv-x="2048"
   d="M 0,0 L 2047,0 2047,2047 0,2047 0,0 Z"
   id="missing-glyph2-4" />
   <glyph
   unicode="3"
   horiz-adv-x="1015"
   d="M 1065,391 C 1065,259 1022,157 935,85 848,13 725,-23 565,-23 414,-23 293,12 204,82 115,151 62,252 47,383 L 333,408 C 351,273 428,205 564,205 631,205 684,222 721,255 758,288 777,339 777,408 777,471 754,519 709,552 664,585 596,602 507,602 L 409,602 409,829 501,829 C 582,829 642,846 683,879 724,912 744,959 744,1020 744,1078 728,1124 696,1157 663,1190 616,1206 554,1206 496,1206 449,1190 414,1158 378,1126 357,1081 352,1022 L 71,1042 C 86,1163 136,1258 222,1327 308,1396 420,1430 559,1430 706,1430 822,1397 905,1331 988,1264 1029,1172 1029,1055 1029,967 1003,895 952,838 900,781 825,744 728,725 L 728,721 C 836,708 919,673 978,615 1036,556 1065,482 1065,391 Z"
   id="glyph2-2" />
   <glyph
   unicode="1"
   horiz-adv-x="950"
   d="M 129,0 L 129,209 478,209 478,1170 140,959 140,1180 493,1409 759,1409 759,209 1082,209 1082,0 129,0 Z"
   id="glyph3-0" />
  </font><font
       id="EmbeddedFont_1-1"
       horiz-adv-x="2048"
       horiz-origin-x="0"
       horiz-origin-y="0"
       vert-origin-x="512"
       vert-origin-y="768"
       vert-adv-y="1024">
   <font-face
   font-family="Liberation Sans embedded"
   units-per-em="2048"
   font-weight="bold"
   font-style="normal"
   ascent="1852"
   descent="423"
   id="font-face2-8" />
   <missing-glyph
   horiz-adv-x="2048"
   d="M 0,0 L 2047,0 2047,2047 0,2047 0,0 Z"
   id="missing-glyph2-9" />
   <glyph
   unicode="4"
   horiz-adv-x="1094"
   d="M 940,287 L 940,0 672,0 672,287 31,287 31,498 626,1409 940,1409 940,496 1128,496 1128,287 940,287 Z M 672,957 C 672,993 673,1032 676,1074 678,1116 680,1143 681,1155 664,1118 632,1064 587,993 L 260,496 672,496 672,957 Z"
   id="glyph2-8" />
   <glyph
   unicode="1"
   horiz-adv-x="950"
   d="M 129,0 L 129,209 478,209 478,1170 140,959 140,1180 493,1409 759,1409 759,209 1082,209 1082,0 129,0 Z"
   id="glyph3-4" />
  </font><font
       id="EmbeddedFont_1-2"
       horiz-adv-x="2048"
       horiz-origin-x="0"
       horiz-origin-y="0"
       vert-origin-x="512"
       vert-origin-y="768"
       vert-adv-y="1024">
   <font-face
   font-family="Liberation Sans embedded"
   units-per-em="2048"
   font-weight="bold"
   font-style="normal"
   ascent="1852"
   descent="423"
   id="font-face2-28" />
   <missing-glyph
   horiz-adv-x="2048"
   d="M 0,0 L 2047,0 2047,2047 0,2047 0,0 Z"
   id="missing-glyph2-2" />
   <glyph
   unicode="5"
   horiz-adv-x="1016"
   d="M 1082,469 C 1082,320 1036,201 943,113 850,24 722,-20 560,-20 419,-20 306,12 221,76 136,139 83,231 63,352 L 344,375 C 359,315 385,271 422,244 459,217 506,203 563,203 633,203 689,225 731,270 772,315 793,379 793,463 793,537 773,596 734,641 695,685 640,707 569,707 491,707 427,677 378,616 L 104,616 153,1409 1000,1409 1000,1200 408,1200 385,844 C 453,904 538,934 640,934 774,934 881,892 962,809 1042,726 1082,612 1082,469 Z"
   id="glyph2-89" />
   <glyph
   unicode="1"
   horiz-adv-x="950"
   d="M 129,0 L 129,209 478,209 478,1170 140,959 140,1180 493,1409 759,1409 759,209 1082,209 1082,0 129,0 Z"
   id="glyph3-07" />
  </font><font
       id="EmbeddedFont_1-54"
       horiz-adv-x="2048"
       horiz-origin-x="0"
       horiz-origin-y="0"
       vert-origin-x="512"
       vert-origin-y="768"
       vert-adv-y="1024">
   <font-face
   font-family="Liberation Sans embedded"
   units-per-em="2048"
   font-weight="bold"
   font-style="normal"
   ascent="1852"
   descent="423"
   id="font-face2-9" />
   <missing-glyph
   horiz-adv-x="2048"
   d="M 0,0 L 2047,0 2047,2047 0,2047 0,0 Z"
   id="missing-glyph2-1" />
   <glyph
   unicode="6"
   horiz-adv-x="987"
   d="M 1065,461 C 1065,311 1023,193 939,108 855,23 739,-20 591,-20 425,-20 298,38 209,155 120,271 75,443 75,672 75,923 120,1113 211,1240 301,1367 430,1430 598,1430 717,1430 812,1404 881,1351 950,1298 998,1217 1027,1106 L 762,1069 C 737,1162 680,1208 592,1208 517,1208 458,1170 415,1095 372,1020 350,905 350,752 380,802 422,840 475,867 528,894 589,907 656,907 782,907 882,867 955,787 1028,707 1065,598 1065,461 Z M 783,453 C 783,533 765,594 728,637 691,679 640,700 575,700 513,700 463,680 426,641 389,601 370,548 370,483 370,401 390,333 429,280 468,226 519,199 582,199 645,199 695,222 730,267 765,312 783,374 783,453 Z"
   id="glyph2-25" />
   <glyph
   unicode="1"
   horiz-adv-x="950"
   d="M 129,0 L 129,209 478,209 478,1170 140,959 140,1180 493,1409 759,1409 759,209 1082,209 1082,0 129,0 Z"
   id="glyph3-08" />
  </font><font
       id="EmbeddedFont_1-28"
       horiz-adv-x="2048"
       horiz-origin-x="0"
       horiz-origin-y="0"
       vert-origin-x="512"
       vert-origin-y="768"
       vert-adv-y="1024">
   <font-face
   font-family="Liberation Sans embedded"
   units-per-em="2048"
   font-weight="bold"
   font-style="normal"
   ascent="1852"
   descent="423"
   id="font-face2-87" />
   <missing-glyph
   horiz-adv-x="2048"
   d="M 0,0 L 2047,0 2047,2047 0,2047 0,0 Z"
   id="missing-glyph2-5" />
   <glyph
   unicode="7"
   horiz-adv-x="958"
   d="M 1049,1186 C 986,1086 926,989 870,895 813,801 764,707 722,612 680,517 647,419 623,319 598,218 586,112 586,0 L 293,0 C 293,117 308,231 339,341 370,450 414,562 472,676 530,789 635,957 788,1178 L 88,1178 88,1409 1049,1409 1049,1186 Z"
   id="glyph2-81" />
   <glyph
   unicode="1"
   horiz-adv-x="950"
   d="M 129,0 L 129,209 478,209 478,1170 140,959 140,1180 493,1409 759,1409 759,209 1082,209 1082,0 129,0 Z"
   id="glyph3-2" />
  </font><font
       id="EmbeddedFont_1-9"
       horiz-adv-x="2048"
       horiz-origin-x="0"
       horiz-origin-y="0"
       vert-origin-x="512"
       vert-origin-y="768"
       vert-adv-y="1024">
   <font-face
   font-family="Liberation Sans embedded"
   units-per-em="2048"
   font-weight="bold"
   font-style="normal"
   ascent="1852"
   descent="423"
   id="font-face2-5" />
   <missing-glyph
   horiz-adv-x="2048"
   d="M 0,0 L 2047,0 2047,2047 0,2047 0,0 Z"
   id="missing-glyph2-6" />
   <glyph
   unicode="8"
   horiz-adv-x="1008"
   d="M 1076,397 C 1076,265 1032,163 945,90 858,17 733,-20 571,-20 410,-20 286,16 198,89 109,162 65,264 65,395 65,485 91,561 143,623 195,684 265,722 352,737 L 352,741 C 276,758 215,795 168,854 121,913 98,980 98,1057 98,1172 139,1263 221,1330 302,1397 418,1430 567,1430 720,1430 837,1398 919,1333 1000,1268 1041,1175 1041,1055 1041,978 1018,911 972,853 925,795 863,758 785,743 L 785,739 C 876,724 947,687 999,628 1050,568 1076,491 1076,397 Z M 752,1040 C 752,1107 737,1156 706,1187 675,1218 629,1233 567,1233 446,1233 385,1169 385,1040 385,905 446,838 569,838 630,838 676,854 707,885 737,916 752,968 752,1040 Z M 785,420 C 785,567 712,641 565,641 497,641 445,622 409,583 372,544 354,489 354,416 354,333 372,273 408,235 444,197 499,178 573,178 646,178 699,197 734,235 768,273 785,335 785,420 Z"
   id="glyph2-4" />
   <glyph
   unicode="1"
   horiz-adv-x="950"
   d="M 129,0 L 129,209 478,209 478,1170 140,959 140,1180 493,1409 759,1409 759,209 1082,209 1082,0 129,0 Z"
   id="glyph3-8" />
  </font><font
       id="EmbeddedFont_1-7"
       horiz-adv-x="2048"
       horiz-origin-x="0"
       horiz-origin-y="0"
       vert-origin-x="512"
       vert-origin-y="768"
       vert-adv-y="1024">
   <font-face
   font-family="Liberation Sans embedded"
   units-per-em="2048"
   font-weight="bold"
   font-style="normal"
   ascent="1852"
   descent="423"
   id="font-face2-4" />
   <missing-glyph
   horiz-adv-x="2048"
   d="M 0,0 L 2047,0 2047,2047 0,2047 0,0 Z"
   id="missing-glyph2-78" />
   <glyph
   unicode="9"
   horiz-adv-x="989"
   d="M 1063,727 C 1063,477 1017,290 926,166 835,42 705,-20 537,-20 413,-20 316,7 246,60 175,113 125,196 96,311 L 360,348 C 386,250 446,201 540,201 619,201 679,239 722,314 764,389 786,501 787,649 762,599 720,560 663,532 605,503 543,489 476,489 352,489 254,531 181,616 108,700 71,814 71,958 71,1106 114,1222 200,1305 285,1388 406,1430 563,1430 732,1430 857,1372 940,1255 1022,1138 1063,962 1063,727 Z M 766,924 C 766,1011 747,1081 709,1133 670,1184 619,1210 556,1210 494,1210 445,1188 410,1143 374,1098 356,1035 356,956 356,878 374,816 409,769 444,722 494,698 557,698 617,698 667,719 707,760 746,801 766,855 766,924 Z"
   id="glyph2-3" />
   <glyph
   unicode="1"
   horiz-adv-x="950"
   d="M 129,0 L 129,209 478,209 478,1170 140,959 140,1180 493,1409 759,1409 759,209 1082,209 1082,0 129,0 Z"
   id="glyph3-7" />
  </font><font
       id="EmbeddedFont_1-95"
       horiz-adv-x="2048"
       horiz-origin-x="0"
       horiz-origin-y="0"
       vert-origin-x="512"
       vert-origin-y="768"
       vert-adv-y="1024">
   <font-face
   font-family="Liberation Sans embedded"
   units-per-em="2048"
   font-weight="bold"
   font-style="normal"
   ascent="1852"
   descent="423"
   id="font-face2-10" />
   <missing-glyph
   horiz-adv-x="2048"
   d="M 0,0 L 2047,0 2047,2047 0,2047 0,0 Z"
   id="missing-glyph2-64" />
   <glyph
   unicode="2"
   horiz-adv-x="983"
   d="M 71,0 L 71,195 C 108,276 160,354 228,431 295,508 380,588 483,671 582,751 651,817 691,869 730,921 750,972 750,1022 750,1145 688,1206 565,1206 505,1206 459,1190 428,1158 396,1125 375,1077 366,1012 L 83,1028 C 99,1159 148,1258 230,1327 311,1396 422,1430 563,1430 715,1430 832,1395 913,1326 994,1257 1035,1159 1035,1034 1035,968 1022,908 996,855 970,802 937,753 896,708 855,663 810,620 761,581 711,542 663,503 616,466 569,429 527,391 489,353 450,315 422,274 403,231 L 1057,231 1057,0 71,0 Z"
   id="glyph2-5" />
   <glyph
   unicode="0"
   horiz-adv-x="971"
   d="M 1055,705 C 1055,467 1014,287 933,164 851,41 728,-20 565,-20 242,-20 81,222 81,705 81,874 99,1011 134,1118 169,1225 222,1303 293,1354 364,1405 457,1430 573,1430 740,1430 862,1370 939,1249 1016,1128 1055,947 1055,705 Z M 773,705 C 773,835 767,936 754,1008 741,1080 721,1132 693,1163 665,1194 624,1210 571,1210 514,1210 472,1194 443,1163 414,1131 393,1079 381,1008 368,936 362,835 362,705 362,576 369,476 382,404 395,331 415,279 444,248 472,217 513,201 567,201 620,201 662,218 691,251 720,284 741,336 754,409 767,482 773,580 773,705 Z"
   id="glyph3-3" />
  </font><font
       id="EmbeddedFont_1-71"
       horiz-adv-x="2048"
       horiz-origin-x="0"
       horiz-origin-y="0"
       vert-origin-x="512"
       vert-origin-y="768"
       vert-adv-y="1024">
   <font-face
   font-family="Liberation Sans embedded"
   units-per-em="2048"
   font-weight="bold"
   font-style="normal"
   ascent="1852"
   descent="423"
   id="font-face2-90" />
   <missing-glyph
   horiz-adv-x="2048"
   d="M 0,0 L 2047,0 2047,2047 0,2047 0,0 Z"
   id="missing-glyph2-3" />
   <glyph
   unicode="2"
   horiz-adv-x="983"
   d="M 71,0 L 71,195 C 108,276 160,354 228,431 295,508 380,588 483,671 582,751 651,817 691,869 730,921 750,972 750,1022 750,1145 688,1206 565,1206 505,1206 459,1190 428,1158 396,1125 375,1077 366,1012 L 83,1028 C 99,1159 148,1258 230,1327 311,1396 422,1430 563,1430 715,1430 832,1395 913,1326 994,1257 1035,1159 1035,1034 1035,968 1022,908 996,855 970,802 937,753 896,708 855,663 810,620 761,581 711,542 663,503 616,466 569,429 527,391 489,353 450,315 422,274 403,231 L 1057,231 1057,0 71,0 Z"
   id="glyph2-41" />
   <glyph
   unicode="1"
   horiz-adv-x="950"
   d="M 129,0 L 129,209 478,209 478,1170 140,959 140,1180 493,1409 759,1409 759,209 1082,209 1082,0 129,0 Z"
   id="glyph3-75" />
  </font><font
       id="EmbeddedFont_1-0"
       horiz-adv-x="2048"
       horiz-origin-x="0"
       horiz-origin-y="0"
       vert-origin-x="512"
       vert-origin-y="768"
       vert-adv-y="1024">
   <font-face
   font-family="Liberation Sans embedded"
   units-per-em="2048"
   font-weight="bold"
   font-style="normal"
   ascent="1852"
   descent="423"
   id="font-face2-95" />
   <missing-glyph
   horiz-adv-x="2048"
   d="M 0,0 L 2047,0 2047,2047 0,2047 0,0 Z"
   id="missing-glyph2-58" />
   <glyph
   unicode="1"
   horiz-adv-x="950"
   d="M 129,0 L 129,209 478,209 478,1170 140,959 140,1180 493,1409 759,1409 759,209 1082,209 1082,0 129,0 Z"
   id="glyph2-37" />
  </font><font
       id="EmbeddedFont_1-51"
       horiz-adv-x="2048"
       horiz-origin-x="0"
       horiz-origin-y="0"
       vert-origin-x="512"
       vert-origin-y="768"
       vert-adv-y="1024">
   <font-face
   font-family="Liberation Sans embedded"
   units-per-em="2048"
   font-weight="bold"
   font-style="normal"
   ascent="1852"
   descent="423"
   id="font-face2-0" />
   <missing-glyph
   horiz-adv-x="2048"
   d="M 0,0 L 2047,0 2047,2047 0,2047 0,0 Z"
   id="missing-glyph2-15" />
   <glyph
   unicode="2"
   horiz-adv-x="983"
   d="M 71,0 L 71,195 C 108,276 160,354 228,431 295,508 380,588 483,671 582,751 651,817 691,869 730,921 750,972 750,1022 750,1145 688,1206 565,1206 505,1206 459,1190 428,1158 396,1125 375,1077 366,1012 L 83,1028 C 99,1159 148,1258 230,1327 311,1396 422,1430 563,1430 715,1430 832,1395 913,1326 994,1257 1035,1159 1035,1034 1035,968 1022,908 996,855 970,802 937,753 896,708 855,663 810,620 761,581 711,542 663,503 616,466 569,429 527,391 489,353 450,315 422,274 403,231 L 1057,231 1057,0 71,0 Z"
   id="glyph2-17" />
  </font><font
       id="EmbeddedFont_1-47"
       horiz-adv-x="2048"
       horiz-origin-x="0"
       horiz-origin-y="0"
       vert-origin-x="512"
       vert-origin-y="768"
       vert-adv-y="1024">
   <font-face
   font-family="Liberation Sans embedded"
   units-per-em="2048"
   font-weight="bold"
   font-style="normal"
   ascent="1852"
   descent="423"
   id="font-face2-55" />
   <missing-glyph
   horiz-adv-x="2048"
   d="M 0,0 L 2047,0 2047,2047 0,2047 0,0 Z"
   id="missing-glyph2-50" />
   <glyph
   unicode="3"
   horiz-adv-x="1015"
   d="M 1065,391 C 1065,259 1022,157 935,85 848,13 725,-23 565,-23 414,-23 293,12 204,82 115,151 62,252 47,383 L 333,408 C 351,273 428,205 564,205 631,205 684,222 721,255 758,288 777,339 777,408 777,471 754,519 709,552 664,585 596,602 507,602 L 409,602 409,829 501,829 C 582,829 642,846 683,879 724,912 744,959 744,1020 744,1078 728,1124 696,1157 663,1190 616,1206 554,1206 496,1206 449,1190 414,1158 378,1126 357,1081 352,1022 L 71,1042 C 86,1163 136,1258 222,1327 308,1396 420,1430 559,1430 706,1430 822,1397 905,1331 988,1264 1029,1172 1029,1055 1029,967 1003,895 952,838 900,781 825,744 728,725 L 728,721 C 836,708 919,673 978,615 1036,556 1065,482 1065,391 Z"
   id="glyph2-92" />
  </font><font
       id="EmbeddedFont_1-52"
       horiz-adv-x="2048"
       horiz-origin-x="0"
       horiz-origin-y="0"
       vert-origin-x="512"
       vert-origin-y="768"
       vert-adv-y="1024">
   <font-face
   font-family="Liberation Sans embedded"
   units-per-em="2048"
   font-weight="bold"
   font-style="normal"
   ascent="1852"
   descent="423"
   id="font-face2-3" />
   <missing-glyph
   horiz-adv-x="2048"
   d="M 0,0 L 2047,0 2047,2047 0,2047 0,0 Z"
   id="missing-glyph2-41" />
   <glyph
   unicode="4"
   horiz-adv-x="1094"
   d="M 940,287 L 940,0 672,0 672,287 31,287 31,498 626,1409 940,1409 940,496 1128,496 1128,287 940,287 Z M 672,957 C 672,993 673,1032 676,1074 678,1116 680,1143 681,1155 664,1118 632,1064 587,993 L 260,496 672,496 672,957 Z"
   id="glyph2-52" />
  </font><font
       id="EmbeddedFont_1-8"
       horiz-adv-x="2048"
       horiz-origin-x="0"
       horiz-origin-y="0"
       vert-origin-x="512"
       vert-origin-y="768"
       vert-adv-y="1024">
   <font-face
   font-family="Liberation Sans embedded"
   units-per-em="2048"
   font-weight="bold"
   font-style="normal"
   ascent="1852"
   descent="423"
   id="font-face2-900" />
   <missing-glyph
   horiz-adv-x="2048"
   d="M 0,0 L 2047,0 2047,2047 0,2047 0,0 Z"
   id="missing-glyph2-0" />
   <glyph
   unicode="5"
   horiz-adv-x="1016"
   d="M 1082,469 C 1082,320 1036,201 943,113 850,24 722,-20 560,-20 419,-20 306,12 221,76 136,139 83,231 63,352 L 344,375 C 359,315 385,271 422,244 459,217 506,203 563,203 633,203 689,225 731,270 772,315 793,379 793,463 793,537 773,596 734,641 695,685 640,707 569,707 491,707 427,677 378,616 L 104,616 153,1409 1000,1409 1000,1200 408,1200 385,844 C 453,904 538,934 640,934 774,934 881,892 962,809 1042,726 1082,612 1082,469 Z"
   id="glyph2-7" />
  </font><font
       id="EmbeddedFont_1-46"
       horiz-adv-x="2048"
       horiz-origin-x="0"
       horiz-origin-y="0"
       vert-origin-x="512"
       vert-origin-y="768"
       vert-adv-y="1024">
   <font-face
   font-family="Liberation Sans embedded"
   units-per-em="2048"
   font-weight="bold"
   font-style="normal"
   ascent="1852"
   descent="423"
   id="font-face2-34" />
   <missing-glyph
   horiz-adv-x="2048"
   d="M 0,0 L 2047,0 2047,2047 0,2047 0,0 Z"
   id="missing-glyph2-90" />
   <glyph
   unicode="6"
   horiz-adv-x="987"
   d="M 1065,461 C 1065,311 1023,193 939,108 855,23 739,-20 591,-20 425,-20 298,38 209,155 120,271 75,443 75,672 75,923 120,1113 211,1240 301,1367 430,1430 598,1430 717,1430 812,1404 881,1351 950,1298 998,1217 1027,1106 L 762,1069 C 737,1162 680,1208 592,1208 517,1208 458,1170 415,1095 372,1020 350,905 350,752 380,802 422,840 475,867 528,894 589,907 656,907 782,907 882,867 955,787 1028,707 1065,598 1065,461 Z M 783,453 C 783,533 765,594 728,637 691,679 640,700 575,700 513,700 463,680 426,641 389,601 370,548 370,483 370,401 390,333 429,280 468,226 519,199 582,199 645,199 695,222 730,267 765,312 783,374 783,453 Z"
   id="glyph2-53" />
  </font><font
       id="EmbeddedFont_1-478"
       horiz-adv-x="2048"
       horiz-origin-x="0"
       horiz-origin-y="0"
       vert-origin-x="512"
       vert-origin-y="768"
       vert-adv-y="1024">
   <font-face
   font-family="Liberation Sans embedded"
   units-per-em="2048"
   font-weight="bold"
   font-style="normal"
   ascent="1852"
   descent="423"
   id="font-face2-81" />
   <missing-glyph
   horiz-adv-x="2048"
   d="M 0,0 L 2047,0 2047,2047 0,2047 0,0 Z"
   id="missing-glyph2-63" />
   <glyph
   unicode="7"
   horiz-adv-x="958"
   d="M 1049,1186 C 986,1086 926,989 870,895 813,801 764,707 722,612 680,517 647,419 623,319 598,218 586,112 586,0 L 293,0 C 293,117 308,231 339,341 370,450 414,562 472,676 530,789 635,957 788,1178 L 88,1178 88,1409 1049,1409 1049,1186 Z"
   id="glyph2-87" />
  </font><font
       id="EmbeddedFont_1-3"
       horiz-adv-x="2048"
       horiz-origin-x="0"
       horiz-origin-y="0"
       vert-origin-x="512"
       vert-origin-y="768"
       vert-adv-y="1024">
   <font-face
   font-family="Liberation Sans embedded"
   units-per-em="2048"
   font-weight="bold"
   font-style="normal"
   ascent="1852"
   descent="423"
   id="font-face2-00" />
   <missing-glyph
   horiz-adv-x="2048"
   d="M 0,0 L 2047,0 2047,2047 0,2047 0,0 Z"
   id="missing-glyph2-8" />
   <glyph
   unicode="8"
   horiz-adv-x="1008"
   d="M 1076,397 C 1076,265 1032,163 945,90 858,17 733,-20 571,-20 410,-20 286,16 198,89 109,162 65,264 65,395 65,485 91,561 143,623 195,684 265,722 352,737 L 352,741 C 276,758 215,795 168,854 121,913 98,980 98,1057 98,1172 139,1263 221,1330 302,1397 418,1430 567,1430 720,1430 837,1398 919,1333 1000,1268 1041,1175 1041,1055 1041,978 1018,911 972,853 925,795 863,758 785,743 L 785,739 C 876,724 947,687 999,628 1050,568 1076,491 1076,397 Z M 752,1040 C 752,1107 737,1156 706,1187 675,1218 629,1233 567,1233 446,1233 385,1169 385,1040 385,905 446,838 569,838 630,838 676,854 707,885 737,916 752,968 752,1040 Z M 785,420 C 785,567 712,641 565,641 497,641 445,622 409,583 372,544 354,489 354,416 354,333 372,273 408,235 444,197 499,178 573,178 646,178 699,197 734,235 768,273 785,335 785,420 Z"
   id="glyph2-82" />
  </font><font
       id="EmbeddedFont_1-42"
       horiz-adv-x="2048"
       horiz-origin-x="0"
       horiz-origin-y="0"
       vert-origin-x="512"
       vert-origin-y="768"
       vert-adv-y="1024">
   <font-face
   font-family="Liberation Sans embedded"
   units-per-em="2048"
   font-weight="bold"
   font-style="normal"
   ascent="1852"
   descent="423"
   id="font-face2-08" />
   <missing-glyph
   horiz-adv-x="2048"
   d="M 0,0 L 2047,0 2047,2047 0,2047 0,0 Z"
   id="missing-glyph2-787" />
   <glyph
   unicode="9"
   horiz-adv-x="989"
   d="M 1063,727 C 1063,477 1017,290 926,166 835,42 705,-20 537,-20 413,-20 316,7 246,60 175,113 125,196 96,311 L 360,348 C 386,250 446,201 540,201 619,201 679,239 722,314 764,389 786,501 787,649 762,599 720,560 663,532 605,503 543,489 476,489 352,489 254,531 181,616 108,700 71,814 71,958 71,1106 114,1222 200,1305 285,1388 406,1430 563,1430 732,1430 857,1372 940,1255 1022,1138 1063,962 1063,727 Z M 766,924 C 766,1011 747,1081 709,1133 670,1184 619,1210 556,1210 494,1210 445,1188 410,1143 374,1098 356,1035 356,956 356,878 374,816 409,769 444,722 494,698 557,698 617,698 667,719 707,760 746,801 766,855 766,924 Z"
   id="glyph2-30" />
  </font><font
       id="EmbeddedFont_1-70"
       horiz-adv-x="2048"
       horiz-origin-x="0"
       horiz-origin-y="0"
       vert-origin-x="512"
       vert-origin-y="768"
       vert-adv-y="1024">
   <font-face
   font-family="Liberation Sans embedded"
   units-per-em="2048"
   font-weight="bold"
   font-style="normal"
   ascent="1852"
   descent="423"
   id="font-face2-26" />
   <missing-glyph
   horiz-adv-x="2048"
   d="M 0,0 L 2047,0 2047,2047 0,2047 0,0 Z"
   id="missing-glyph2-17" />
   <glyph
   unicode="1"
   horiz-adv-x="950"
   d="M 129,0 L 129,209 478,209 478,1170 140,959 140,1180 493,1409 759,1409 759,209 1082,209 1082,0 129,0 Z"
   id="glyph2-6" />
   <glyph
   unicode="0"
   horiz-adv-x="971"
   d="M 1055,705 C 1055,467 1014,287 933,164 851,41 728,-20 565,-20 242,-20 81,222 81,705 81,874 99,1011 134,1118 169,1225 222,1303 293,1354 364,1405 457,1430 573,1430 740,1430 862,1370 939,1249 1016,1128 1055,947 1055,705 Z M 773,705 C 773,835 767,936 754,1008 741,1080 721,1132 693,1163 665,1194 624,1210 571,1210 514,1210 472,1194 443,1163 414,1131 393,1079 381,1008 368,936 362,835 362,705 362,576 369,476 382,404 395,331 415,279 444,248 472,217 513,201 567,201 620,201 662,218 691,251 720,284 741,336 754,409 767,482 773,580 773,705 Z"
   id="glyph3-25" />
  </font><font
       id="EmbeddedFont_1-19"
       horiz-adv-x="2048"
       horiz-origin-x="0"
       horiz-origin-y="0"
       vert-origin-x="512"
       vert-origin-y="768"
       vert-adv-y="1024">
   <font-face
   font-family="Liberation Sans embedded"
   units-per-em="2048"
   font-weight="bold"
   font-style="normal"
   ascent="1852"
   descent="423"
   id="font-face2-53" />
   <missing-glyph
   horiz-adv-x="2048"
   d="M 0,0 L 2047,0 2047,2047 0,2047 0,0 Z"
   id="missing-glyph2-631" />
   <glyph
   unicode="5"
   horiz-adv-x="1016"
   d="M 1082,469 C 1082,320 1036,201 943,113 850,24 722,-20 560,-20 419,-20 306,12 221,76 136,139 83,231 63,352 L 344,375 C 359,315 385,271 422,244 459,217 506,203 563,203 633,203 689,225 731,270 772,315 793,379 793,463 793,537 773,596 734,641 695,685 640,707 569,707 491,707 427,677 378,616 L 104,616 153,1409 1000,1409 1000,1200 408,1200 385,844 C 453,904 538,934 640,934 774,934 881,892 962,809 1042,726 1082,612 1082,469 Z"
   id="glyph2-534" />
   <glyph
   unicode="2"
   horiz-adv-x="983"
   d="M 71,0 L 71,195 C 108,276 160,354 228,431 295,508 380,588 483,671 582,751 651,817 691,869 730,921 750,972 750,1022 750,1145 688,1206 565,1206 505,1206 459,1190 428,1158 396,1125 375,1077 366,1012 L 83,1028 C 99,1159 148,1258 230,1327 311,1396 422,1430 563,1430 715,1430 832,1395 913,1326 994,1257 1035,1159 1035,1034 1035,968 1022,908 996,855 970,802 937,753 896,708 855,663 810,620 761,581 711,542 663,503 616,466 569,429 527,391 489,353 450,315 422,274 403,231 L 1057,231 1057,0 71,0 Z"
   id="glyph3-03" />
  </font><font
       id="EmbeddedFont_1-13"
       horiz-adv-x="2048"
       horiz-origin-x="0"
       horiz-origin-y="0"
       vert-origin-x="512"
       vert-origin-y="768"
       vert-adv-y="1024">
   <font-face
   font-family="Liberation Sans embedded"
   units-per-em="2048"
   font-weight="bold"
   font-style="normal"
   ascent="1852"
   descent="423"
   id="font-face2-47" />
   <missing-glyph
   horiz-adv-x="2048"
   d="M 0,0 L 2047,0 2047,2047 0,2047 0,0 Z"
   id="missing-glyph2-13" />
   <glyph
   unicode="6"
   horiz-adv-x="987"
   d="M 1065,461 C 1065,311 1023,193 939,108 855,23 739,-20 591,-20 425,-20 298,38 209,155 120,271 75,443 75,672 75,923 120,1113 211,1240 301,1367 430,1430 598,1430 717,1430 812,1404 881,1351 950,1298 998,1217 1027,1106 L 762,1069 C 737,1162 680,1208 592,1208 517,1208 458,1170 415,1095 372,1020 350,905 350,752 380,802 422,840 475,867 528,894 589,907 656,907 782,907 882,867 955,787 1028,707 1065,598 1065,461 Z M 783,453 C 783,533 765,594 728,637 691,679 640,700 575,700 513,700 463,680 426,641 389,601 370,548 370,483 370,401 390,333 429,280 468,226 519,199 582,199 645,199 695,222 730,267 765,312 783,374 783,453 Z"
   id="glyph2-71" />
   <glyph
   unicode="2"
   horiz-adv-x="983"
   d="M 71,0 L 71,195 C 108,276 160,354 228,431 295,508 380,588 483,671 582,751 651,817 691,869 730,921 750,972 750,1022 750,1145 688,1206 565,1206 505,1206 459,1190 428,1158 396,1125 375,1077 366,1012 L 83,1028 C 99,1159 148,1258 230,1327 311,1396 422,1430 563,1430 715,1430 832,1395 913,1326 994,1257 1035,1159 1035,1034 1035,968 1022,908 996,855 970,802 937,753 896,708 855,663 810,620 761,581 711,542 663,503 616,466 569,429 527,391 489,353 450,315 422,274 403,231 L 1057,231 1057,0 71,0 Z"
   id="glyph3-27" />
  </font><font
       id="EmbeddedFont_1-88"
       horiz-adv-x="2048"
       horiz-origin-x="0"
       horiz-origin-y="0"
       vert-origin-x="512"
       vert-origin-y="768"
       vert-adv-y="1024">
   <font-face
   font-family="Liberation Sans embedded"
   units-per-em="2048"
   font-weight="bold"
   font-style="normal"
   ascent="1852"
   descent="423"
   id="font-face2-7" />
   <missing-glyph
   horiz-adv-x="2048"
   d="M 0,0 L 2047,0 2047,2047 0,2047 0,0 Z"
   id="missing-glyph2-40" />
   <glyph
   unicode="7"
   horiz-adv-x="958"
   d="M 1049,1186 C 986,1086 926,989 870,895 813,801 764,707 722,612 680,517 647,419 623,319 598,218 586,112 586,0 L 293,0 C 293,117 308,231 339,341 370,450 414,562 472,676 530,789 635,957 788,1178 L 88,1178 88,1409 1049,1409 1049,1186 Z"
   id="glyph2-0" />
   <glyph
   unicode="2"
   horiz-adv-x="983"
   d="M 71,0 L 71,195 C 108,276 160,354 228,431 295,508 380,588 483,671 582,751 651,817 691,869 730,921 750,972 750,1022 750,1145 688,1206 565,1206 505,1206 459,1190 428,1158 396,1125 375,1077 366,1012 L 83,1028 C 99,1159 148,1258 230,1327 311,1396 422,1430 563,1430 715,1430 832,1395 913,1326 994,1257 1035,1159 1035,1034 1035,968 1022,908 996,855 970,802 937,753 896,708 855,663 810,620 761,581 711,542 663,503 616,466 569,429 527,391 489,353 450,315 422,274 403,231 L 1057,231 1057,0 71,0 Z"
   id="glyph3-5" />
  </font><font
       id="EmbeddedFont_1-515"
       horiz-adv-x="2048"
       horiz-origin-x="0"
       horiz-origin-y="0"
       vert-origin-x="512"
       vert-origin-y="768"
       vert-adv-y="1024">
   <font-face
   font-family="Liberation Sans embedded"
   units-per-em="2048"
   font-weight="bold"
   font-style="normal"
   ascent="1852"
   descent="423"
   id="font-face2-05" />
   <missing-glyph
   horiz-adv-x="2048"
   d="M 0,0 L 2047,0 2047,2047 0,2047 0,0 Z"
   id="missing-glyph2-12" />
   <glyph
   unicode="8"
   horiz-adv-x="1008"
   d="M 1076,397 C 1076,265 1032,163 945,90 858,17 733,-20 571,-20 410,-20 286,16 198,89 109,162 65,264 65,395 65,485 91,561 143,623 195,684 265,722 352,737 L 352,741 C 276,758 215,795 168,854 121,913 98,980 98,1057 98,1172 139,1263 221,1330 302,1397 418,1430 567,1430 720,1430 837,1398 919,1333 1000,1268 1041,1175 1041,1055 1041,978 1018,911 972,853 925,795 863,758 785,743 L 785,739 C 876,724 947,687 999,628 1050,568 1076,491 1076,397 Z M 752,1040 C 752,1107 737,1156 706,1187 675,1218 629,1233 567,1233 446,1233 385,1169 385,1040 385,905 446,838 569,838 630,838 676,854 707,885 737,916 752,968 752,1040 Z M 785,420 C 785,567 712,641 565,641 497,641 445,622 409,583 372,544 354,489 354,416 354,333 372,273 408,235 444,197 499,178 573,178 646,178 699,197 734,235 768,273 785,335 785,420 Z"
   id="glyph2-21" />
   <glyph
   unicode="2"
   horiz-adv-x="983"
   d="M 71,0 L 71,195 C 108,276 160,354 228,431 295,508 380,588 483,671 582,751 651,817 691,869 730,921 750,972 750,1022 750,1145 688,1206 565,1206 505,1206 459,1190 428,1158 396,1125 375,1077 366,1012 L 83,1028 C 99,1159 148,1258 230,1327 311,1396 422,1430 563,1430 715,1430 832,1395 913,1326 994,1257 1035,1159 1035,1034 1035,968 1022,908 996,855 970,802 937,753 896,708 855,663 810,620 761,581 711,542 663,503 616,466 569,429 527,391 489,353 450,315 422,274 403,231 L 1057,231 1057,0 71,0 Z"
   id="glyph3-55" />
  </font><font
       id="EmbeddedFont_1-97"
       horiz-adv-x="2048"
       horiz-origin-x="0"
       horiz-origin-y="0"
       vert-origin-x="512"
       vert-origin-y="768"
       vert-adv-y="1024">
   <font-face
   font-family="Liberation Sans embedded"
   units-per-em="2048"
   font-weight="bold"
   font-style="normal"
   ascent="1852"
   descent="423"
   id="font-face2-09" />
   <missing-glyph
   horiz-adv-x="2048"
   d="M 0,0 L 2047,0 2047,2047 0,2047 0,0 Z"
   id="missing-glyph2-33" />
   <glyph
   unicode="9"
   horiz-adv-x="989"
   d="M 1063,727 C 1063,477 1017,290 926,166 835,42 705,-20 537,-20 413,-20 316,7 246,60 175,113 125,196 96,311 L 360,348 C 386,250 446,201 540,201 619,201 679,239 722,314 764,389 786,501 787,649 762,599 720,560 663,532 605,503 543,489 476,489 352,489 254,531 181,616 108,700 71,814 71,958 71,1106 114,1222 200,1305 285,1388 406,1430 563,1430 732,1430 857,1372 940,1255 1022,1138 1063,962 1063,727 Z M 766,924 C 766,1011 747,1081 709,1133 670,1184 619,1210 556,1210 494,1210 445,1188 410,1143 374,1098 356,1035 356,956 356,878 374,816 409,769 444,722 494,698 557,698 617,698 667,719 707,760 746,801 766,855 766,924 Z"
   id="glyph2-31" />
   <glyph
   unicode="2"
   horiz-adv-x="983"
   d="M 71,0 L 71,195 C 108,276 160,354 228,431 295,508 380,588 483,671 582,751 651,817 691,869 730,921 750,972 750,1022 750,1145 688,1206 565,1206 505,1206 459,1190 428,1158 396,1125 375,1077 366,1012 L 83,1028 C 99,1159 148,1258 230,1327 311,1396 422,1430 563,1430 715,1430 832,1395 913,1326 994,1257 1035,1159 1035,1034 1035,968 1022,908 996,855 970,802 937,753 896,708 855,663 810,620 761,581 711,542 663,503 616,466 569,429 527,391 489,353 450,315 422,274 403,231 L 1057,231 1057,0 71,0 Z"
   id="glyph3-35" />
  </font><font
       id="EmbeddedFont_1-04"
       horiz-adv-x="2048"
       horiz-origin-x="0"
       horiz-origin-y="0"
       vert-origin-x="512"
       vert-origin-y="768"
       vert-adv-y="1024">
   <font-face
   font-family="Liberation Sans embedded"
   units-per-em="2048"
   font-weight="bold"
   font-style="normal"
   ascent="1852"
   descent="423"
   id="font-face2-85" />
   <missing-glyph
   horiz-adv-x="2048"
   d="M 0,0 L 2047,0 2047,2047 0,2047 0,0 Z"
   id="missing-glyph2-73" />
   <glyph
   unicode="3"
   horiz-adv-x="1015"
   d="M 1065,391 C 1065,259 1022,157 935,85 848,13 725,-23 565,-23 414,-23 293,12 204,82 115,151 62,252 47,383 L 333,408 C 351,273 428,205 564,205 631,205 684,222 721,255 758,288 777,339 777,408 777,471 754,519 709,552 664,585 596,602 507,602 L 409,602 409,829 501,829 C 582,829 642,846 683,879 724,912 744,959 744,1020 744,1078 728,1124 696,1157 663,1190 616,1206 554,1206 496,1206 449,1190 414,1158 378,1126 357,1081 352,1022 L 71,1042 C 86,1163 136,1258 222,1327 308,1396 420,1430 559,1430 706,1430 822,1397 905,1331 988,1264 1029,1172 1029,1055 1029,967 1003,895 952,838 900,781 825,744 728,725 L 728,721 C 836,708 919,673 978,615 1036,556 1065,482 1065,391 Z"
   id="glyph2-303" />
   <glyph
   unicode="0"
   horiz-adv-x="971"
   d="M 1055,705 C 1055,467 1014,287 933,164 851,41 728,-20 565,-20 242,-20 81,222 81,705 81,874 99,1011 134,1118 169,1225 222,1303 293,1354 364,1405 457,1430 573,1430 740,1430 862,1370 939,1249 1016,1128 1055,947 1055,705 Z M 773,705 C 773,835 767,936 754,1008 741,1080 721,1132 693,1163 665,1194 624,1210 571,1210 514,1210 472,1194 443,1163 414,1131 393,1079 381,1008 368,936 362,835 362,705 362,576 369,476 382,404 395,331 415,279 444,248 472,217 513,201 567,201 620,201 662,218 691,251 720,284 741,336 754,409 767,482 773,580 773,705 Z"
   id="glyph3-032" />
  </font><font
       id="EmbeddedFont_1-22"
       horiz-adv-x="2048"
       horiz-origin-x="0"
       horiz-origin-y="0"
       vert-origin-x="512"
       vert-origin-y="768"
       vert-adv-y="1024">
   <font-face
   font-family="Arial Narrow embedded"
   units-per-em="2048"
   font-weight="bold"
   font-style="normal"
   ascent="1905"
   descent="423"
   id="font-face2-20" />
   <missing-glyph
   horiz-adv-x="2048"
   d="M 0,0 L 2047,0 2047,2047 0,2047 0,0 Z"
   id="missing-glyph2-02" />
   <glyph
   unicode="E"
   horiz-adv-x="911"
   d="M 123,0 L 123,1466 1015,1466 1015,1218 365,1218 365,893 969,893 969,646 365,646 365,248 1037,248 1037,0 123,0 Z"
   id="glyph2-316" />
  </font><font
       id="EmbeddedFont_2"
       horiz-adv-x="2048"
       horiz-origin-x="0"
       horiz-origin-y="0"
       vert-origin-x="512"
       vert-origin-y="768"
       vert-adv-y="1024">
   <font-face
   font-family="Liberation Sans embedded"
   units-per-em="2048"
   font-weight="bold"
   font-style="normal"
   ascent="1852"
   descent="423"
   id="font-face3" />
   <missing-glyph
   horiz-adv-x="2048"
   d="M 0,0 L 2047,0 2047,2047 0,2047 0,0 Z"
   id="missing-glyph3" />
   <glyph
   unicode="5"
   horiz-adv-x="1016"
   d="M 1082,469 C 1082,320 1036,201 943,113 850,24 722,-20 560,-20 419,-20 306,12 221,76 136,139 83,231 63,352 L 344,375 C 359,315 385,271 422,244 459,217 506,203 563,203 633,203 689,225 731,270 772,315 793,379 793,463 793,537 773,596 734,641 695,685 640,707 569,707 491,707 427,677 378,616 L 104,616 153,1409 1000,1409 1000,1200 408,1200 385,844 C 453,904 538,934 640,934 774,934 881,892 962,809 1042,726 1082,612 1082,469 Z"
   id="glyph3-77" />
   <glyph
   unicode="1"
   horiz-adv-x="950"
   d="M 129,0 L 129,209 478,209 478,1170 140,959 140,1180 493,1409 759,1409 759,209 1082,209 1082,0 129,0 Z"
   id="glyph4" />
  </font><font
       id="EmbeddedFont_1-17"
       horiz-adv-x="2048"
       horiz-origin-x="0"
       horiz-origin-y="0"
       vert-origin-x="512"
       vert-origin-y="768"
       vert-adv-y="1024">
   <font-face
   font-family="Arial Narrow embedded"
   units-per-em="2048"
   font-weight="bold"
   font-style="normal"
   ascent="1905"
   descent="423"
   id="font-face2-94" />
   <missing-glyph
   horiz-adv-x="2048"
   d="M 0,0 L 2047,0 2047,2047 0,2047 0,0 Z"
   id="missing-glyph2-98" />
   <glyph
   unicode="E"
   horiz-adv-x="911"
   d="M 123,0 L 123,1466 1015,1466 1015,1218 365,1218 365,893 969,893 969,646 365,646 365,248 1037,248 1037,0 123,0 Z"
   id="glyph2-00" />
  </font><font
       id="EmbeddedFont_2-8"
       horiz-adv-x="2048"
       horiz-origin-x="0"
       horiz-origin-y="0"
       vert-origin-x="512"
       vert-origin-y="768"
       vert-adv-y="1024">
   <font-face
   font-family="Liberation Sans embedded"
   units-per-em="2048"
   font-weight="bold"
   font-style="normal"
   ascent="1852"
   descent="423"
   id="font-face3-5" />
   <missing-glyph
   horiz-adv-x="2048"
   d="M 0,0 L 2047,0 2047,2047 0,2047 0,0 Z"
   id="missing-glyph3-0" />
   <glyph
   unicode="2"
   horiz-adv-x="983"
   d="M 71,0 L 71,195 C 108,276 160,354 228,431 295,508 380,588 483,671 582,751 651,817 691,869 730,921 750,972 750,1022 750,1145 688,1206 565,1206 505,1206 459,1190 428,1158 396,1125 375,1077 366,1012 L 83,1028 C 99,1159 148,1258 230,1327 311,1396 422,1430 563,1430 715,1430 832,1395 913,1326 994,1257 1035,1159 1035,1034 1035,968 1022,908 996,855 970,802 937,753 896,708 855,663 810,620 761,581 711,542 663,503 616,466 569,429 527,391 489,353 450,315 422,274 403,231 L 1057,231 1057,0 71,0 Z"
   id="glyph3-89" />
   <glyph
   unicode="0"
   horiz-adv-x="971"
   d="M 1055,705 C 1055,467 1014,287 933,164 851,41 728,-20 565,-20 242,-20 81,222 81,705 81,874 99,1011 134,1118 169,1225 222,1303 293,1354 364,1405 457,1430 573,1430 740,1430 862,1370 939,1249 1016,1128 1055,947 1055,705 Z M 773,705 C 773,835 767,936 754,1008 741,1080 721,1132 693,1163 665,1194 624,1210 571,1210 514,1210 472,1194 443,1163 414,1131 393,1079 381,1008 368,936 362,835 362,705 362,576 369,476 382,404 395,331 415,279 444,248 472,217 513,201 567,201 620,201 662,218 691,251 720,284 741,336 754,409 767,482 773,580 773,705 Z"
   id="glyph4-2" />
  </font><font
       id="EmbeddedFont_1-45"
       horiz-adv-x="2048"
       horiz-origin-x="0"
       horiz-origin-y="0"
       vert-origin-x="512"
       vert-origin-y="768"
       vert-adv-y="1024">
   <font-face
   font-family="Arial Narrow embedded"
   units-per-em="2048"
   font-weight="bold"
   font-style="normal"
   ascent="1905"
   descent="423"
   id="font-face2-6" />
   <missing-glyph
   horiz-adv-x="2048"
   d="M 0,0 L 2047,0 2047,2047 0,2047 0,0 Z"
   id="missing-glyph2-89" />
   <glyph
   unicode="E"
   horiz-adv-x="911"
   d="M 123,0 L 123,1466 1015,1466 1015,1218 365,1218 365,893 969,893 969,646 365,646 365,248 1037,248 1037,0 123,0 Z"
   id="glyph2-899" />
  </font><font
       id="EmbeddedFont_2-0"
       horiz-adv-x="2048"
       horiz-origin-x="0"
       horiz-origin-y="0"
       vert-origin-x="512"
       vert-origin-y="768"
       vert-adv-y="1024">
   <font-face
   font-family="Liberation Sans embedded"
   units-per-em="2048"
   font-weight="bold"
   font-style="normal"
   ascent="1852"
   descent="423"
   id="font-face3-8" />
   <missing-glyph
   horiz-adv-x="2048"
   d="M 0,0 L 2047,0 2047,2047 0,2047 0,0 Z"
   id="missing-glyph3-4" />
   <glyph
   unicode="2"
   horiz-adv-x="983"
   d="M 71,0 L 71,195 C 108,276 160,354 228,431 295,508 380,588 483,671 582,751 651,817 691,869 730,921 750,972 750,1022 750,1145 688,1206 565,1206 505,1206 459,1190 428,1158 396,1125 375,1077 366,1012 L 83,1028 C 99,1159 148,1258 230,1327 311,1396 422,1430 563,1430 715,1430 832,1395 913,1326 994,1257 1035,1159 1035,1034 1035,968 1022,908 996,855 970,802 937,753 896,708 855,663 810,620 761,581 711,542 663,503 616,466 569,429 527,391 489,353 450,315 422,274 403,231 L 1057,231 1057,0 71,0 Z"
   id="glyph3-56" />
  </font><font
       id="EmbeddedFont_1-525"
       horiz-adv-x="2048"
       horiz-origin-x="0"
       horiz-origin-y="0"
       vert-origin-x="512"
       vert-origin-y="768"
       vert-adv-y="1024">
   <font-face
   font-family="Arial Narrow embedded"
   units-per-em="2048"
   font-weight="bold"
   font-style="normal"
   ascent="1905"
   descent="423"
   id="font-face2-22" />
   <missing-glyph
   horiz-adv-x="2048"
   d="M 0,0 L 2047,0 2047,2047 0,2047 0,0 Z"
   id="missing-glyph2-30" />
   <glyph
   unicode="E"
   horiz-adv-x="911"
   d="M 123,0 L 123,1466 1015,1466 1015,1218 365,1218 365,893 969,893 969,646 365,646 365,248 1037,248 1037,0 123,0 Z"
   id="glyph2-872" />
  </font><font
       id="EmbeddedFont_2-3"
       horiz-adv-x="2048"
       horiz-origin-x="0"
       horiz-origin-y="0"
       vert-origin-x="512"
       vert-origin-y="768"
       vert-adv-y="1024">
   <font-face
   font-family="Liberation Sans embedded"
   units-per-em="2048"
   font-weight="bold"
   font-style="normal"
   ascent="1852"
   descent="423"
   id="font-face3-7" />
   <missing-glyph
   horiz-adv-x="2048"
   d="M 0,0 L 2047,0 2047,2047 0,2047 0,0 Z"
   id="missing-glyph3-5" />
   <glyph
   unicode="4"
   horiz-adv-x="1094"
   d="M 940,287 L 940,0 672,0 672,287 31,287 31,498 626,1409 940,1409 940,496 1128,496 1128,287 940,287 Z M 672,957 C 672,993 673,1032 676,1074 678,1116 680,1143 681,1155 664,1118 632,1064 587,993 L 260,496 672,496 672,957 Z"
   id="glyph3-41" />
   <glyph
   unicode="2"
   horiz-adv-x="983"
   d="M 71,0 L 71,195 C 108,276 160,354 228,431 295,508 380,588 483,671 582,751 651,817 691,869 730,921 750,972 750,1022 750,1145 688,1206 565,1206 505,1206 459,1190 428,1158 396,1125 375,1077 366,1012 L 83,1028 C 99,1159 148,1258 230,1327 311,1396 422,1430 563,1430 715,1430 832,1395 913,1326 994,1257 1035,1159 1035,1034 1035,968 1022,908 996,855 970,802 937,753 896,708 855,663 810,620 761,581 711,542 663,503 616,466 569,429 527,391 489,353 450,315 422,274 403,231 L 1057,231 1057,0 71,0 Z"
   id="glyph4-8" />
  </font><font
       id="EmbeddedFont_1-68"
       horiz-adv-x="2048"
       horiz-origin-x="0"
       horiz-origin-y="0"
       vert-origin-x="512"
       vert-origin-y="768"
       vert-adv-y="1024">
   <font-face
   font-family="Liberation Sans embedded"
   units-per-em="2048"
   font-weight="bold"
   font-style="normal"
   ascent="1852"
   descent="423"
   id="font-face2-14" />
   <missing-glyph
   horiz-adv-x="2048"
   d="M 0,0 L 2047,0 2047,2047 0,2047 0,0 Z"
   id="missing-glyph2-76" />
   <glyph
   unicode="2"
   horiz-adv-x="983"
   d="M 71,0 L 71,195 C 108,276 160,354 228,431 295,508 380,588 483,671 582,751 651,817 691,869 730,921 750,972 750,1022 750,1145 688,1206 565,1206 505,1206 459,1190 428,1158 396,1125 375,1077 366,1012 L 83,1028 C 99,1159 148,1258 230,1327 311,1396 422,1430 563,1430 715,1430 832,1395 913,1326 994,1257 1035,1159 1035,1034 1035,968 1022,908 996,855 970,802 937,753 896,708 855,663 810,620 761,581 711,542 663,503 616,466 569,429 527,391 489,353 450,315 422,274 403,231 L 1057,231 1057,0 71,0 Z"
   id="glyph2-49" />
  </font><font
       id="EmbeddedFont_1-27"
       horiz-adv-x="2048"
       horiz-origin-x="0"
       horiz-origin-y="0"
       vert-origin-x="512"
       vert-origin-y="768"
       vert-adv-y="1024">
   <font-face
   font-family="Liberation Sans embedded"
   units-per-em="2048"
   font-weight="bold"
   font-style="normal"
   ascent="1852"
   descent="423"
   id="font-face2-45" />
   <missing-glyph
   horiz-adv-x="2048"
   d="M 0,0 L 2047,0 2047,2047 0,2047 0,0 Z"
   id="missing-glyph2-03" />
   <glyph
   unicode="3"
   horiz-adv-x="1015"
   d="M 1065,391 C 1065,259 1022,157 935,85 848,13 725,-23 565,-23 414,-23 293,12 204,82 115,151 62,252 47,383 L 333,408 C 351,273 428,205 564,205 631,205 684,222 721,255 758,288 777,339 777,408 777,471 754,519 709,552 664,585 596,602 507,602 L 409,602 409,829 501,829 C 582,829 642,846 683,879 724,912 744,959 744,1020 744,1078 728,1124 696,1157 663,1190 616,1206 554,1206 496,1206 449,1190 414,1158 378,1126 357,1081 352,1022 L 71,1042 C 86,1163 136,1258 222,1327 308,1396 420,1430 559,1430 706,1430 822,1397 905,1331 988,1264 1029,1172 1029,1055 1029,967 1003,895 952,838 900,781 825,744 728,725 L 728,721 C 836,708 919,673 978,615 1036,556 1065,482 1065,391 Z"
   id="glyph2-29" />
   <glyph
   unicode="2"
   horiz-adv-x="983"
   d="M 71,0 L 71,195 C 108,276 160,354 228,431 295,508 380,588 483,671 582,751 651,817 691,869 730,921 750,972 750,1022 750,1145 688,1206 565,1206 505,1206 459,1190 428,1158 396,1125 375,1077 366,1012 L 83,1028 C 99,1159 148,1258 230,1327 311,1396 422,1430 563,1430 715,1430 832,1395 913,1326 994,1257 1035,1159 1035,1034 1035,968 1022,908 996,855 970,802 937,753 896,708 855,663 810,620 761,581 711,542 663,503 616,466 569,429 527,391 489,353 450,315 422,274 403,231 L 1057,231 1057,0 71,0 Z"
   id="glyph3-78" />
  </font><font
       id="EmbeddedFont_1-703"
       horiz-adv-x="2048"
       horiz-origin-x="0"
       horiz-origin-y="0"
       vert-origin-x="512"
       vert-origin-y="768"
       vert-adv-y="1024">
   <font-face
   font-family="Liberation Sans embedded"
   units-per-em="2048"
   font-weight="bold"
   font-style="normal"
   ascent="1852"
   descent="423"
   id="font-face2-44" />
   <missing-glyph
   horiz-adv-x="2048"
   d="M 0,0 L 2047,0 2047,2047 0,2047 0,0 Z"
   id="missing-glyph2-67" />
   <glyph
   unicode="4"
   horiz-adv-x="1094"
   d="M 940,287 L 940,0 672,0 672,287 31,287 31,498 626,1409 940,1409 940,496 1128,496 1128,287 940,287 Z M 672,957 C 672,993 673,1032 676,1074 678,1116 680,1143 681,1155 664,1118 632,1064 587,993 L 260,496 672,496 672,957 Z"
   id="glyph2-18" />
   <glyph
   unicode="2"
   horiz-adv-x="983"
   d="M 71,0 L 71,195 C 108,276 160,354 228,431 295,508 380,588 483,671 582,751 651,817 691,869 730,921 750,972 750,1022 750,1145 688,1206 565,1206 505,1206 459,1190 428,1158 396,1125 375,1077 366,1012 L 83,1028 C 99,1159 148,1258 230,1327 311,1396 422,1430 563,1430 715,1430 832,1395 913,1326 994,1257 1035,1159 1035,1034 1035,968 1022,908 996,855 970,802 937,753 896,708 855,663 810,620 761,581 711,542 663,503 616,466 569,429 527,391 489,353 450,315 422,274 403,231 L 1057,231 1057,0 71,0 Z"
   id="glyph3-1" />
  </font><font
       id="EmbeddedFont_1"
       horiz-adv-x="2048"
       horiz-origin-x="0"
       horiz-origin-y="0"
       vert-origin-x="512"
       vert-origin-y="768"
       vert-adv-y="1024">
   <font-face
   font-family="Liberation Sans embedded"
   units-per-em="2048"
   font-weight="bold"
   font-style="normal"
   ascent="1852"
   descent="423"
   id="font-face2" />
   <missing-glyph
   horiz-adv-x="2048"
   d="M 0,0 L 2047,0 2047,2047 0,2047 0,0 Z"
   id="missing-glyph2" />
   <glyph
   unicode="1"
   horiz-adv-x="950"
   d="M 129,0 L 129,209 478,209 478,1170 140,959 140,1180 493,1409 759,1409 759,209 1082,209 1082,0 129,0 Z"
   id="glyph2" />
  </font><font
       id="EmbeddedFont_1-5-2"
       horiz-adv-x="2048"
       horiz-origin-x="0"
       horiz-origin-y="0"
       vert-origin-x="512"
       vert-origin-y="768"
       vert-adv-y="1024">
   <font-face
   font-family="Liberation Sans embedded"
   units-per-em="2048"
   font-weight="bold"
   font-style="normal"
   ascent="1852"
   descent="423"
   id="font-face2-1-7" />
   <missing-glyph
   horiz-adv-x="2048"
   d="M 0,0 L 2047,0 2047,2047 0,2047 0,0 Z"
   id="missing-glyph2-7-6" />
   <glyph
   unicode="1"
   horiz-adv-x="950"
   d="M 129,0 L 129,209 478,209 478,1170 140,959 140,1180 493,1409 759,1409 759,209 1082,209 1082,0 129,0 Z"
   id="glyph2-1-1" />
  </font><font
       id="EmbeddedFont_1-4-3"
       horiz-adv-x="2048"
       horiz-origin-x="0"
       horiz-origin-y="0"
       vert-origin-x="512"
       vert-origin-y="768"
       vert-adv-y="1024">
   <font-face
   font-family="Liberation Sans embedded"
   units-per-em="2048"
   font-weight="bold"
   font-style="normal"
   ascent="1852"
   descent="423"
   id="font-face2-2-2" />
   <missing-glyph
   horiz-adv-x="2048"
   d="M 0,0 L 2047,0 2047,2047 0,2047 0,0 Z"
   id="missing-glyph2-77-2" />
   <glyph
   unicode="2"
   horiz-adv-x="983"
   d="M 71,0 L 71,195 C 108,276 160,354 228,431 295,508 380,588 483,671 582,751 651,817 691,869 730,921 750,972 750,1022 750,1145 688,1206 565,1206 505,1206 459,1190 428,1158 396,1125 375,1077 366,1012 L 83,1028 C 99,1159 148,1258 230,1327 311,1396 422,1430 563,1430 715,1430 832,1395 913,1326 994,1257 1035,1159 1035,1034 1035,968 1022,908 996,855 970,802 937,753 896,708 855,663 810,620 761,581 711,542 663,503 616,466 569,429 527,391 489,353 450,315 422,274 403,231 L 1057,231 1057,0 71,0 Z"
   id="glyph2-9-1" />
   <glyph
   unicode="1"
   horiz-adv-x="950"
   d="M 129,0 L 129,209 478,209 478,1170 140,959 140,1180 493,1409 759,1409 759,209 1082,209 1082,0 129,0 Z"
   id="glyph3-6" />
  </font><font
       id="EmbeddedFont_1-6-7"
       horiz-adv-x="2048"
       horiz-origin-x="0"
       horiz-origin-y="0"
       vert-origin-x="512"
       vert-origin-y="768"
       vert-adv-y="1024">
   <font-face
   font-family="Liberation Sans embedded"
   units-per-em="2048"
   font-weight="bold"
   font-style="normal"
   ascent="1852"
   descent="423"
   id="font-face2-15-6" />
   <missing-glyph
   horiz-adv-x="2048"
   d="M 0,0 L 2047,0 2047,2047 0,2047 0,0 Z"
   id="missing-glyph2-4-1" />
   <glyph
   unicode="3"
   horiz-adv-x="1015"
   d="M 1065,391 C 1065,259 1022,157 935,85 848,13 725,-23 565,-23 414,-23 293,12 204,82 115,151 62,252 47,383 L 333,408 C 351,273 428,205 564,205 631,205 684,222 721,255 758,288 777,339 777,408 777,471 754,519 709,552 664,585 596,602 507,602 L 409,602 409,829 501,829 C 582,829 642,846 683,879 724,912 744,959 744,1020 744,1078 728,1124 696,1157 663,1190 616,1206 554,1206 496,1206 449,1190 414,1158 378,1126 357,1081 352,1022 L 71,1042 C 86,1163 136,1258 222,1327 308,1396 420,1430 559,1430 706,1430 822,1397 905,1331 988,1264 1029,1172 1029,1055 1029,967 1003,895 952,838 900,781 825,744 728,725 L 728,721 C 836,708 919,673 978,615 1036,556 1065,482 1065,391 Z"
   id="glyph2-2-8" />
   <glyph
   unicode="1"
   horiz-adv-x="950"
   d="M 129,0 L 129,209 478,209 478,1170 140,959 140,1180 493,1409 759,1409 759,209 1082,209 1082,0 129,0 Z"
   id="glyph3-0-9" />
  </font><font
       id="EmbeddedFont_1-1-9"
       horiz-adv-x="2048"
       horiz-origin-x="0"
       horiz-origin-y="0"
       vert-origin-x="512"
       vert-origin-y="768"
       vert-adv-y="1024">
   <font-face
   font-family="Liberation Sans embedded"
   units-per-em="2048"
   font-weight="bold"
   font-style="normal"
   ascent="1852"
   descent="423"
   id="font-face2-8-5" />
   <missing-glyph
   horiz-adv-x="2048"
   d="M 0,0 L 2047,0 2047,2047 0,2047 0,0 Z"
   id="missing-glyph2-9-4" />
   <glyph
   unicode="4"
   horiz-adv-x="1094"
   d="M 940,287 L 940,0 672,0 672,287 31,287 31,498 626,1409 940,1409 940,496 1128,496 1128,287 940,287 Z M 672,957 C 672,993 673,1032 676,1074 678,1116 680,1143 681,1155 664,1118 632,1064 587,993 L 260,496 672,496 672,957 Z"
   id="glyph2-8-3" />
   <glyph
   unicode="1"
   horiz-adv-x="950"
   d="M 129,0 L 129,209 478,209 478,1170 140,959 140,1180 493,1409 759,1409 759,209 1082,209 1082,0 129,0 Z"
   id="glyph3-4-1" />
  </font><font
       id="EmbeddedFont_1-2-3"
       horiz-adv-x="2048"
       horiz-origin-x="0"
       horiz-origin-y="0"
       vert-origin-x="512"
       vert-origin-y="768"
       vert-adv-y="1024">
   <font-face
   font-family="Liberation Sans embedded"
   units-per-em="2048"
   font-weight="bold"
   font-style="normal"
   ascent="1852"
   descent="423"
   id="font-face2-28-4" />
   <missing-glyph
   horiz-adv-x="2048"
   d="M 0,0 L 2047,0 2047,2047 0,2047 0,0 Z"
   id="missing-glyph2-2-1" />
   <glyph
   unicode="5"
   horiz-adv-x="1016"
   d="M 1082,469 C 1082,320 1036,201 943,113 850,24 722,-20 560,-20 419,-20 306,12 221,76 136,139 83,231 63,352 L 344,375 C 359,315 385,271 422,244 459,217 506,203 563,203 633,203 689,225 731,270 772,315 793,379 793,463 793,537 773,596 734,641 695,685 640,707 569,707 491,707 427,677 378,616 L 104,616 153,1409 1000,1409 1000,1200 408,1200 385,844 C 453,904 538,934 640,934 774,934 881,892 962,809 1042,726 1082,612 1082,469 Z"
   id="glyph2-89-1" />
   <glyph
   unicode="1"
   horiz-adv-x="950"
   d="M 129,0 L 129,209 478,209 478,1170 140,959 140,1180 493,1409 759,1409 759,209 1082,209 1082,0 129,0 Z"
   id="glyph3-07-3" />
  </font><font
       id="EmbeddedFont_1-54-4"
       horiz-adv-x="2048"
       horiz-origin-x="0"
       horiz-origin-y="0"
       vert-origin-x="512"
       vert-origin-y="768"
       vert-adv-y="1024">
   <font-face
   font-family="Liberation Sans embedded"
   units-per-em="2048"
   font-weight="bold"
   font-style="normal"
   ascent="1852"
   descent="423"
   id="font-face2-9-2" />
   <missing-glyph
   horiz-adv-x="2048"
   d="M 0,0 L 2047,0 2047,2047 0,2047 0,0 Z"
   id="missing-glyph2-1-7" />
   <glyph
   unicode="6"
   horiz-adv-x="987"
   d="M 1065,461 C 1065,311 1023,193 939,108 855,23 739,-20 591,-20 425,-20 298,38 209,155 120,271 75,443 75,672 75,923 120,1113 211,1240 301,1367 430,1430 598,1430 717,1430 812,1404 881,1351 950,1298 998,1217 1027,1106 L 762,1069 C 737,1162 680,1208 592,1208 517,1208 458,1170 415,1095 372,1020 350,905 350,752 380,802 422,840 475,867 528,894 589,907 656,907 782,907 882,867 955,787 1028,707 1065,598 1065,461 Z M 783,453 C 783,533 765,594 728,637 691,679 640,700 575,700 513,700 463,680 426,641 389,601 370,548 370,483 370,401 390,333 429,280 468,226 519,199 582,199 645,199 695,222 730,267 765,312 783,374 783,453 Z"
   id="glyph2-25-7" />
   <glyph
   unicode="1"
   horiz-adv-x="950"
   d="M 129,0 L 129,209 478,209 478,1170 140,959 140,1180 493,1409 759,1409 759,209 1082,209 1082,0 129,0 Z"
   id="glyph3-08-9" />
  </font><font
       id="EmbeddedFont_1-28-9"
       horiz-adv-x="2048"
       horiz-origin-x="0"
       horiz-origin-y="0"
       vert-origin-x="512"
       vert-origin-y="768"
       vert-adv-y="1024">
   <font-face
   font-family="Liberation Sans embedded"
   units-per-em="2048"
   font-weight="bold"
   font-style="normal"
   ascent="1852"
   descent="423"
   id="font-face2-87-8" />
   <missing-glyph
   horiz-adv-x="2048"
   d="M 0,0 L 2047,0 2047,2047 0,2047 0,0 Z"
   id="missing-glyph2-5-6" />
   <glyph
   unicode="7"
   horiz-adv-x="958"
   d="M 1049,1186 C 986,1086 926,989 870,895 813,801 764,707 722,612 680,517 647,419 623,319 598,218 586,112 586,0 L 293,0 C 293,117 308,231 339,341 370,450 414,562 472,676 530,789 635,957 788,1178 L 88,1178 88,1409 1049,1409 1049,1186 Z"
   id="glyph2-81-5" />
   <glyph
   unicode="1"
   horiz-adv-x="950"
   d="M 129,0 L 129,209 478,209 478,1170 140,959 140,1180 493,1409 759,1409 759,209 1082,209 1082,0 129,0 Z"
   id="glyph3-2-0" />
  </font><font
       id="EmbeddedFont_1-9-6"
       horiz-adv-x="2048"
       horiz-origin-x="0"
       horiz-origin-y="0"
       vert-origin-x="512"
       vert-origin-y="768"
       vert-adv-y="1024">
   <font-face
   font-family="Liberation Sans embedded"
   units-per-em="2048"
   font-weight="bold"
   font-style="normal"
   ascent="1852"
   descent="423"
   id="font-face2-5-0" />
   <missing-glyph
   horiz-adv-x="2048"
   d="M 0,0 L 2047,0 2047,2047 0,2047 0,0 Z"
   id="missing-glyph2-6-2" />
   <glyph
   unicode="8"
   horiz-adv-x="1008"
   d="M 1076,397 C 1076,265 1032,163 945,90 858,17 733,-20 571,-20 410,-20 286,16 198,89 109,162 65,264 65,395 65,485 91,561 143,623 195,684 265,722 352,737 L 352,741 C 276,758 215,795 168,854 121,913 98,980 98,1057 98,1172 139,1263 221,1330 302,1397 418,1430 567,1430 720,1430 837,1398 919,1333 1000,1268 1041,1175 1041,1055 1041,978 1018,911 972,853 925,795 863,758 785,743 L 785,739 C 876,724 947,687 999,628 1050,568 1076,491 1076,397 Z M 752,1040 C 752,1107 737,1156 706,1187 675,1218 629,1233 567,1233 446,1233 385,1169 385,1040 385,905 446,838 569,838 630,838 676,854 707,885 737,916 752,968 752,1040 Z M 785,420 C 785,567 712,641 565,641 497,641 445,622 409,583 372,544 354,489 354,416 354,333 372,273 408,235 444,197 499,178 573,178 646,178 699,197 734,235 768,273 785,335 785,420 Z"
   id="glyph2-4-4" />
   <glyph
   unicode="1"
   horiz-adv-x="950"
   d="M 129,0 L 129,209 478,209 478,1170 140,959 140,1180 493,1409 759,1409 759,209 1082,209 1082,0 129,0 Z"
   id="glyph3-8-8" />
  </font><font
       id="EmbeddedFont_1-7-0"
       horiz-adv-x="2048"
       horiz-origin-x="0"
       horiz-origin-y="0"
       vert-origin-x="512"
       vert-origin-y="768"
       vert-adv-y="1024">
   <font-face
   font-family="Liberation Sans embedded"
   units-per-em="2048"
   font-weight="bold"
   font-style="normal"
   ascent="1852"
   descent="423"
   id="font-face2-4-9" />
   <missing-glyph
   horiz-adv-x="2048"
   d="M 0,0 L 2047,0 2047,2047 0,2047 0,0 Z"
   id="missing-glyph2-78-0" />
   <glyph
   unicode="9"
   horiz-adv-x="989"
   d="M 1063,727 C 1063,477 1017,290 926,166 835,42 705,-20 537,-20 413,-20 316,7 246,60 175,113 125,196 96,311 L 360,348 C 386,250 446,201 540,201 619,201 679,239 722,314 764,389 786,501 787,649 762,599 720,560 663,532 605,503 543,489 476,489 352,489 254,531 181,616 108,700 71,814 71,958 71,1106 114,1222 200,1305 285,1388 406,1430 563,1430 732,1430 857,1372 940,1255 1022,1138 1063,962 1063,727 Z M 766,924 C 766,1011 747,1081 709,1133 670,1184 619,1210 556,1210 494,1210 445,1188 410,1143 374,1098 356,1035 356,956 356,878 374,816 409,769 444,722 494,698 557,698 617,698 667,719 707,760 746,801 766,855 766,924 Z"
   id="glyph2-3-0" />
   <glyph
   unicode="1"
   horiz-adv-x="950"
   d="M 129,0 L 129,209 478,209 478,1170 140,959 140,1180 493,1409 759,1409 759,209 1082,209 1082,0 129,0 Z"
   id="glyph3-7-6" />
  </font><font
       id="EmbeddedFont_1-95-8"
       horiz-adv-x="2048"
       horiz-origin-x="0"
       horiz-origin-y="0"
       vert-origin-x="512"
       vert-origin-y="768"
       vert-adv-y="1024">
   <font-face
   font-family="Liberation Sans embedded"
   units-per-em="2048"
   font-weight="bold"
   font-style="normal"
   ascent="1852"
   descent="423"
   id="font-face2-10-9" />
   <missing-glyph
   horiz-adv-x="2048"
   d="M 0,0 L 2047,0 2047,2047 0,2047 0,0 Z"
   id="missing-glyph2-64-3" />
   <glyph
   unicode="2"
   horiz-adv-x="983"
   d="M 71,0 L 71,195 C 108,276 160,354 228,431 295,508 380,588 483,671 582,751 651,817 691,869 730,921 750,972 750,1022 750,1145 688,1206 565,1206 505,1206 459,1190 428,1158 396,1125 375,1077 366,1012 L 83,1028 C 99,1159 148,1258 230,1327 311,1396 422,1430 563,1430 715,1430 832,1395 913,1326 994,1257 1035,1159 1035,1034 1035,968 1022,908 996,855 970,802 937,753 896,708 855,663 810,620 761,581 711,542 663,503 616,466 569,429 527,391 489,353 450,315 422,274 403,231 L 1057,231 1057,0 71,0 Z"
   id="glyph2-5-4" />
   <glyph
   unicode="0"
   horiz-adv-x="971"
   d="M 1055,705 C 1055,467 1014,287 933,164 851,41 728,-20 565,-20 242,-20 81,222 81,705 81,874 99,1011 134,1118 169,1225 222,1303 293,1354 364,1405 457,1430 573,1430 740,1430 862,1370 939,1249 1016,1128 1055,947 1055,705 Z M 773,705 C 773,835 767,936 754,1008 741,1080 721,1132 693,1163 665,1194 624,1210 571,1210 514,1210 472,1194 443,1163 414,1131 393,1079 381,1008 368,936 362,835 362,705 362,576 369,476 382,404 395,331 415,279 444,248 472,217 513,201 567,201 620,201 662,218 691,251 720,284 741,336 754,409 767,482 773,580 773,705 Z"
   id="glyph3-3-4" />
  </font><font
       id="EmbeddedFont_1-71-6"
       horiz-adv-x="2048"
       horiz-origin-x="0"
       horiz-origin-y="0"
       vert-origin-x="512"
       vert-origin-y="768"
       vert-adv-y="1024">
   <font-face
   font-family="Liberation Sans embedded"
   units-per-em="2048"
   font-weight="bold"
   font-style="normal"
   ascent="1852"
   descent="423"
   id="font-face2-90-6" />
   <missing-glyph
   horiz-adv-x="2048"
   d="M 0,0 L 2047,0 2047,2047 0,2047 0,0 Z"
   id="missing-glyph2-3-1" />
   <glyph
   unicode="2"
   horiz-adv-x="983"
   d="M 71,0 L 71,195 C 108,276 160,354 228,431 295,508 380,588 483,671 582,751 651,817 691,869 730,921 750,972 750,1022 750,1145 688,1206 565,1206 505,1206 459,1190 428,1158 396,1125 375,1077 366,1012 L 83,1028 C 99,1159 148,1258 230,1327 311,1396 422,1430 563,1430 715,1430 832,1395 913,1326 994,1257 1035,1159 1035,1034 1035,968 1022,908 996,855 970,802 937,753 896,708 855,663 810,620 761,581 711,542 663,503 616,466 569,429 527,391 489,353 450,315 422,274 403,231 L 1057,231 1057,0 71,0 Z"
   id="glyph2-41-8" />
   <glyph
   unicode="1"
   horiz-adv-x="950"
   d="M 129,0 L 129,209 478,209 478,1170 140,959 140,1180 493,1409 759,1409 759,209 1082,209 1082,0 129,0 Z"
   id="glyph3-75-4" />
  </font><font
       id="EmbeddedFont_1-0-3"
       horiz-adv-x="2048"
       horiz-origin-x="0"
       horiz-origin-y="0"
       vert-origin-x="512"
       vert-origin-y="768"
       vert-adv-y="1024">
   <font-face
   font-family="Liberation Sans embedded"
   units-per-em="2048"
   font-weight="bold"
   font-style="normal"
   ascent="1852"
   descent="423"
   id="font-face2-95-7" />
   <missing-glyph
   horiz-adv-x="2048"
   d="M 0,0 L 2047,0 2047,2047 0,2047 0,0 Z"
   id="missing-glyph2-58-8" />
   <glyph
   unicode="1"
   horiz-adv-x="950"
   d="M 129,0 L 129,209 478,209 478,1170 140,959 140,1180 493,1409 759,1409 759,209 1082,209 1082,0 129,0 Z"
   id="glyph2-37-8" />
  </font><font
       id="EmbeddedFont_1-51-1"
       horiz-adv-x="2048"
       horiz-origin-x="0"
       horiz-origin-y="0"
       vert-origin-x="512"
       vert-origin-y="768"
       vert-adv-y="1024">
   <font-face
   font-family="Liberation Sans embedded"
   units-per-em="2048"
   font-weight="bold"
   font-style="normal"
   ascent="1852"
   descent="423"
   id="font-face2-0-3" />
   <missing-glyph
   horiz-adv-x="2048"
   d="M 0,0 L 2047,0 2047,2047 0,2047 0,0 Z"
   id="missing-glyph2-15-5" />
   <glyph
   unicode="2"
   horiz-adv-x="983"
   d="M 71,0 L 71,195 C 108,276 160,354 228,431 295,508 380,588 483,671 582,751 651,817 691,869 730,921 750,972 750,1022 750,1145 688,1206 565,1206 505,1206 459,1190 428,1158 396,1125 375,1077 366,1012 L 83,1028 C 99,1159 148,1258 230,1327 311,1396 422,1430 563,1430 715,1430 832,1395 913,1326 994,1257 1035,1159 1035,1034 1035,968 1022,908 996,855 970,802 937,753 896,708 855,663 810,620 761,581 711,542 663,503 616,466 569,429 527,391 489,353 450,315 422,274 403,231 L 1057,231 1057,0 71,0 Z"
   id="glyph2-17-9" />
  </font><font
       id="EmbeddedFont_1-47-0"
       horiz-adv-x="2048"
       horiz-origin-x="0"
       horiz-origin-y="0"
       vert-origin-x="512"
       vert-origin-y="768"
       vert-adv-y="1024">
   <font-face
   font-family="Liberation Sans embedded"
   units-per-em="2048"
   font-weight="bold"
   font-style="normal"
   ascent="1852"
   descent="423"
   id="font-face2-55-7" />
   <missing-glyph
   horiz-adv-x="2048"
   d="M 0,0 L 2047,0 2047,2047 0,2047 0,0 Z"
   id="missing-glyph2-50-6" />
   <glyph
   unicode="3"
   horiz-adv-x="1015"
   d="M 1065,391 C 1065,259 1022,157 935,85 848,13 725,-23 565,-23 414,-23 293,12 204,82 115,151 62,252 47,383 L 333,408 C 351,273 428,205 564,205 631,205 684,222 721,255 758,288 777,339 777,408 777,471 754,519 709,552 664,585 596,602 507,602 L 409,602 409,829 501,829 C 582,829 642,846 683,879 724,912 744,959 744,1020 744,1078 728,1124 696,1157 663,1190 616,1206 554,1206 496,1206 449,1190 414,1158 378,1126 357,1081 352,1022 L 71,1042 C 86,1163 136,1258 222,1327 308,1396 420,1430 559,1430 706,1430 822,1397 905,1331 988,1264 1029,1172 1029,1055 1029,967 1003,895 952,838 900,781 825,744 728,725 L 728,721 C 836,708 919,673 978,615 1036,556 1065,482 1065,391 Z"
   id="glyph2-92-3" />
  </font><font
       id="EmbeddedFont_1-52-5"
       horiz-adv-x="2048"
       horiz-origin-x="0"
       horiz-origin-y="0"
       vert-origin-x="512"
       vert-origin-y="768"
       vert-adv-y="1024">
   <font-face
   font-family="Liberation Sans embedded"
   units-per-em="2048"
   font-weight="bold"
   font-style="normal"
   ascent="1852"
   descent="423"
   id="font-face2-3-4" />
   <missing-glyph
   horiz-adv-x="2048"
   d="M 0,0 L 2047,0 2047,2047 0,2047 0,0 Z"
   id="missing-glyph2-41-2" />
   <glyph
   unicode="4"
   horiz-adv-x="1094"
   d="M 940,287 L 940,0 672,0 672,287 31,287 31,498 626,1409 940,1409 940,496 1128,496 1128,287 940,287 Z M 672,957 C 672,993 673,1032 676,1074 678,1116 680,1143 681,1155 664,1118 632,1064 587,993 L 260,496 672,496 672,957 Z"
   id="glyph2-52-0" />
  </font><font
       id="EmbeddedFont_1-8-3"
       horiz-adv-x="2048"
       horiz-origin-x="0"
       horiz-origin-y="0"
       vert-origin-x="512"
       vert-origin-y="768"
       vert-adv-y="1024">
   <font-face
   font-family="Liberation Sans embedded"
   units-per-em="2048"
   font-weight="bold"
   font-style="normal"
   ascent="1852"
   descent="423"
   id="font-face2-900-7" />
   <missing-glyph
   horiz-adv-x="2048"
   d="M 0,0 L 2047,0 2047,2047 0,2047 0,0 Z"
   id="missing-glyph2-0-2" />
   <glyph
   unicode="5"
   horiz-adv-x="1016"
   d="M 1082,469 C 1082,320 1036,201 943,113 850,24 722,-20 560,-20 419,-20 306,12 221,76 136,139 83,231 63,352 L 344,375 C 359,315 385,271 422,244 459,217 506,203 563,203 633,203 689,225 731,270 772,315 793,379 793,463 793,537 773,596 734,641 695,685 640,707 569,707 491,707 427,677 378,616 L 104,616 153,1409 1000,1409 1000,1200 408,1200 385,844 C 453,904 538,934 640,934 774,934 881,892 962,809 1042,726 1082,612 1082,469 Z"
   id="glyph2-7-6" />
  </font><font
       id="EmbeddedFont_1-46-6"
       horiz-adv-x="2048"
       horiz-origin-x="0"
       horiz-origin-y="0"
       vert-origin-x="512"
       vert-origin-y="768"
       vert-adv-y="1024">
   <font-face
   font-family="Liberation Sans embedded"
   units-per-em="2048"
   font-weight="bold"
   font-style="normal"
   ascent="1852"
   descent="423"
   id="font-face2-34-5" />
   <missing-glyph
   horiz-adv-x="2048"
   d="M 0,0 L 2047,0 2047,2047 0,2047 0,0 Z"
   id="missing-glyph2-90-7" />
   <glyph
   unicode="6"
   horiz-adv-x="987"
   d="M 1065,461 C 1065,311 1023,193 939,108 855,23 739,-20 591,-20 425,-20 298,38 209,155 120,271 75,443 75,672 75,923 120,1113 211,1240 301,1367 430,1430 598,1430 717,1430 812,1404 881,1351 950,1298 998,1217 1027,1106 L 762,1069 C 737,1162 680,1208 592,1208 517,1208 458,1170 415,1095 372,1020 350,905 350,752 380,802 422,840 475,867 528,894 589,907 656,907 782,907 882,867 955,787 1028,707 1065,598 1065,461 Z M 783,453 C 783,533 765,594 728,637 691,679 640,700 575,700 513,700 463,680 426,641 389,601 370,548 370,483 370,401 390,333 429,280 468,226 519,199 582,199 645,199 695,222 730,267 765,312 783,374 783,453 Z"
   id="glyph2-53-5" />
  </font><font
       id="EmbeddedFont_1-478-2"
       horiz-adv-x="2048"
       horiz-origin-x="0"
       horiz-origin-y="0"
       vert-origin-x="512"
       vert-origin-y="768"
       vert-adv-y="1024">
   <font-face
   font-family="Liberation Sans embedded"
   units-per-em="2048"
   font-weight="bold"
   font-style="normal"
   ascent="1852"
   descent="423"
   id="font-face2-81-0" />
   <missing-glyph
   horiz-adv-x="2048"
   d="M 0,0 L 2047,0 2047,2047 0,2047 0,0 Z"
   id="missing-glyph2-63-0" />
   <glyph
   unicode="7"
   horiz-adv-x="958"
   d="M 1049,1186 C 986,1086 926,989 870,895 813,801 764,707 722,612 680,517 647,419 623,319 598,218 586,112 586,0 L 293,0 C 293,117 308,231 339,341 370,450 414,562 472,676 530,789 635,957 788,1178 L 88,1178 88,1409 1049,1409 1049,1186 Z"
   id="glyph2-87-1" />
  </font><font
       id="EmbeddedFont_1-3-0"
       horiz-adv-x="2048"
       horiz-origin-x="0"
       horiz-origin-y="0"
       vert-origin-x="512"
       vert-origin-y="768"
       vert-adv-y="1024">
   <font-face
   font-family="Liberation Sans embedded"
   units-per-em="2048"
   font-weight="bold"
   font-style="normal"
   ascent="1852"
   descent="423"
   id="font-face2-00-7" />
   <missing-glyph
   horiz-adv-x="2048"
   d="M 0,0 L 2047,0 2047,2047 0,2047 0,0 Z"
   id="missing-glyph2-8-1" />
   <glyph
   unicode="8"
   horiz-adv-x="1008"
   d="M 1076,397 C 1076,265 1032,163 945,90 858,17 733,-20 571,-20 410,-20 286,16 198,89 109,162 65,264 65,395 65,485 91,561 143,623 195,684 265,722 352,737 L 352,741 C 276,758 215,795 168,854 121,913 98,980 98,1057 98,1172 139,1263 221,1330 302,1397 418,1430 567,1430 720,1430 837,1398 919,1333 1000,1268 1041,1175 1041,1055 1041,978 1018,911 972,853 925,795 863,758 785,743 L 785,739 C 876,724 947,687 999,628 1050,568 1076,491 1076,397 Z M 752,1040 C 752,1107 737,1156 706,1187 675,1218 629,1233 567,1233 446,1233 385,1169 385,1040 385,905 446,838 569,838 630,838 676,854 707,885 737,916 752,968 752,1040 Z M 785,420 C 785,567 712,641 565,641 497,641 445,622 409,583 372,544 354,489 354,416 354,333 372,273 408,235 444,197 499,178 573,178 646,178 699,197 734,235 768,273 785,335 785,420 Z"
   id="glyph2-82-7" />
  </font><font
       id="EmbeddedFont_1-42-7"
       horiz-adv-x="2048"
       horiz-origin-x="0"
       horiz-origin-y="0"
       vert-origin-x="512"
       vert-origin-y="768"
       vert-adv-y="1024">
   <font-face
   font-family="Liberation Sans embedded"
   units-per-em="2048"
   font-weight="bold"
   font-style="normal"
   ascent="1852"
   descent="423"
   id="font-face2-08-3" />
   <missing-glyph
   horiz-adv-x="2048"
   d="M 0,0 L 2047,0 2047,2047 0,2047 0,0 Z"
   id="missing-glyph2-787-3" />
   <glyph
   unicode="9"
   horiz-adv-x="989"
   d="M 1063,727 C 1063,477 1017,290 926,166 835,42 705,-20 537,-20 413,-20 316,7 246,60 175,113 125,196 96,311 L 360,348 C 386,250 446,201 540,201 619,201 679,239 722,314 764,389 786,501 787,649 762,599 720,560 663,532 605,503 543,489 476,489 352,489 254,531 181,616 108,700 71,814 71,958 71,1106 114,1222 200,1305 285,1388 406,1430 563,1430 732,1430 857,1372 940,1255 1022,1138 1063,962 1063,727 Z M 766,924 C 766,1011 747,1081 709,1133 670,1184 619,1210 556,1210 494,1210 445,1188 410,1143 374,1098 356,1035 356,956 356,878 374,816 409,769 444,722 494,698 557,698 617,698 667,719 707,760 746,801 766,855 766,924 Z"
   id="glyph2-30-5" />
  </font><font
       id="EmbeddedFont_1-70-8"
       horiz-adv-x="2048"
       horiz-origin-x="0"
       horiz-origin-y="0"
       vert-origin-x="512"
       vert-origin-y="768"
       vert-adv-y="1024">
   <font-face
   font-family="Liberation Sans embedded"
   units-per-em="2048"
   font-weight="bold"
   font-style="normal"
   ascent="1852"
   descent="423"
   id="font-face2-26-1" />
   <missing-glyph
   horiz-adv-x="2048"
   d="M 0,0 L 2047,0 2047,2047 0,2047 0,0 Z"
   id="missing-glyph2-17-8" />
   <glyph
   unicode="1"
   horiz-adv-x="950"
   d="M 129,0 L 129,209 478,209 478,1170 140,959 140,1180 493,1409 759,1409 759,209 1082,209 1082,0 129,0 Z"
   id="glyph2-6-2" />
   <glyph
   unicode="0"
   horiz-adv-x="971"
   d="M 1055,705 C 1055,467 1014,287 933,164 851,41 728,-20 565,-20 242,-20 81,222 81,705 81,874 99,1011 134,1118 169,1225 222,1303 293,1354 364,1405 457,1430 573,1430 740,1430 862,1370 939,1249 1016,1128 1055,947 1055,705 Z M 773,705 C 773,835 767,936 754,1008 741,1080 721,1132 693,1163 665,1194 624,1210 571,1210 514,1210 472,1194 443,1163 414,1131 393,1079 381,1008 368,936 362,835 362,705 362,576 369,476 382,404 395,331 415,279 444,248 472,217 513,201 567,201 620,201 662,218 691,251 720,284 741,336 754,409 767,482 773,580 773,705 Z"
   id="glyph3-25-6" />
  </font><font
       id="EmbeddedFont_1-19-3"
       horiz-adv-x="2048"
       horiz-origin-x="0"
       horiz-origin-y="0"
       vert-origin-x="512"
       vert-origin-y="768"
       vert-adv-y="1024">
   <font-face
   font-family="Liberation Sans embedded"
   units-per-em="2048"
   font-weight="bold"
   font-style="normal"
   ascent="1852"
   descent="423"
   id="font-face2-53-8" />
   <missing-glyph
   horiz-adv-x="2048"
   d="M 0,0 L 2047,0 2047,2047 0,2047 0,0 Z"
   id="missing-glyph2-631-0" />
   <glyph
   unicode="5"
   horiz-adv-x="1016"
   d="M 1082,469 C 1082,320 1036,201 943,113 850,24 722,-20 560,-20 419,-20 306,12 221,76 136,139 83,231 63,352 L 344,375 C 359,315 385,271 422,244 459,217 506,203 563,203 633,203 689,225 731,270 772,315 793,379 793,463 793,537 773,596 734,641 695,685 640,707 569,707 491,707 427,677 378,616 L 104,616 153,1409 1000,1409 1000,1200 408,1200 385,844 C 453,904 538,934 640,934 774,934 881,892 962,809 1042,726 1082,612 1082,469 Z"
   id="glyph2-534-1" />
   <glyph
   unicode="2"
   horiz-adv-x="983"
   d="M 71,0 L 71,195 C 108,276 160,354 228,431 295,508 380,588 483,671 582,751 651,817 691,869 730,921 750,972 750,1022 750,1145 688,1206 565,1206 505,1206 459,1190 428,1158 396,1125 375,1077 366,1012 L 83,1028 C 99,1159 148,1258 230,1327 311,1396 422,1430 563,1430 715,1430 832,1395 913,1326 994,1257 1035,1159 1035,1034 1035,968 1022,908 996,855 970,802 937,753 896,708 855,663 810,620 761,581 711,542 663,503 616,466 569,429 527,391 489,353 450,315 422,274 403,231 L 1057,231 1057,0 71,0 Z"
   id="glyph3-03-2" />
  </font><font
       id="EmbeddedFont_1-13-9"
       horiz-adv-x="2048"
       horiz-origin-x="0"
       horiz-origin-y="0"
       vert-origin-x="512"
       vert-origin-y="768"
       vert-adv-y="1024">
   <font-face
   font-family="Liberation Sans embedded"
   units-per-em="2048"
   font-weight="bold"
   font-style="normal"
   ascent="1852"
   descent="423"
   id="font-face2-47-4" />
   <missing-glyph
   horiz-adv-x="2048"
   d="M 0,0 L 2047,0 2047,2047 0,2047 0,0 Z"
   id="missing-glyph2-13-7" />
   <glyph
   unicode="6"
   horiz-adv-x="987"
   d="M 1065,461 C 1065,311 1023,193 939,108 855,23 739,-20 591,-20 425,-20 298,38 209,155 120,271 75,443 75,672 75,923 120,1113 211,1240 301,1367 430,1430 598,1430 717,1430 812,1404 881,1351 950,1298 998,1217 1027,1106 L 762,1069 C 737,1162 680,1208 592,1208 517,1208 458,1170 415,1095 372,1020 350,905 350,752 380,802 422,840 475,867 528,894 589,907 656,907 782,907 882,867 955,787 1028,707 1065,598 1065,461 Z M 783,453 C 783,533 765,594 728,637 691,679 640,700 575,700 513,700 463,680 426,641 389,601 370,548 370,483 370,401 390,333 429,280 468,226 519,199 582,199 645,199 695,222 730,267 765,312 783,374 783,453 Z"
   id="glyph2-71-8" />
   <glyph
   unicode="2"
   horiz-adv-x="983"
   d="M 71,0 L 71,195 C 108,276 160,354 228,431 295,508 380,588 483,671 582,751 651,817 691,869 730,921 750,972 750,1022 750,1145 688,1206 565,1206 505,1206 459,1190 428,1158 396,1125 375,1077 366,1012 L 83,1028 C 99,1159 148,1258 230,1327 311,1396 422,1430 563,1430 715,1430 832,1395 913,1326 994,1257 1035,1159 1035,1034 1035,968 1022,908 996,855 970,802 937,753 896,708 855,663 810,620 761,581 711,542 663,503 616,466 569,429 527,391 489,353 450,315 422,274 403,231 L 1057,231 1057,0 71,0 Z"
   id="glyph3-27-3" />
  </font><font
       id="EmbeddedFont_1-88-2"
       horiz-adv-x="2048"
       horiz-origin-x="0"
       horiz-origin-y="0"
       vert-origin-x="512"
       vert-origin-y="768"
       vert-adv-y="1024">
   <font-face
   font-family="Liberation Sans embedded"
   units-per-em="2048"
   font-weight="bold"
   font-style="normal"
   ascent="1852"
   descent="423"
   id="font-face2-7-0" />
   <missing-glyph
   horiz-adv-x="2048"
   d="M 0,0 L 2047,0 2047,2047 0,2047 0,0 Z"
   id="missing-glyph2-40-1" />
   <glyph
   unicode="7"
   horiz-adv-x="958"
   d="M 1049,1186 C 986,1086 926,989 870,895 813,801 764,707 722,612 680,517 647,419 623,319 598,218 586,112 586,0 L 293,0 C 293,117 308,231 339,341 370,450 414,562 472,676 530,789 635,957 788,1178 L 88,1178 88,1409 1049,1409 1049,1186 Z"
   id="glyph2-0-6" />
   <glyph
   unicode="2"
   horiz-adv-x="983"
   d="M 71,0 L 71,195 C 108,276 160,354 228,431 295,508 380,588 483,671 582,751 651,817 691,869 730,921 750,972 750,1022 750,1145 688,1206 565,1206 505,1206 459,1190 428,1158 396,1125 375,1077 366,1012 L 83,1028 C 99,1159 148,1258 230,1327 311,1396 422,1430 563,1430 715,1430 832,1395 913,1326 994,1257 1035,1159 1035,1034 1035,968 1022,908 996,855 970,802 937,753 896,708 855,663 810,620 761,581 711,542 663,503 616,466 569,429 527,391 489,353 450,315 422,274 403,231 L 1057,231 1057,0 71,0 Z"
   id="glyph3-5-4" />
  </font><font
       id="EmbeddedFont_1-515-1"
       horiz-adv-x="2048"
       horiz-origin-x="0"
       horiz-origin-y="0"
       vert-origin-x="512"
       vert-origin-y="768"
       vert-adv-y="1024">
   <font-face
   font-family="Liberation Sans embedded"
   units-per-em="2048"
   font-weight="bold"
   font-style="normal"
   ascent="1852"
   descent="423"
   id="font-face2-05-8" />
   <missing-glyph
   horiz-adv-x="2048"
   d="M 0,0 L 2047,0 2047,2047 0,2047 0,0 Z"
   id="missing-glyph2-12-9" />
   <glyph
   unicode="8"
   horiz-adv-x="1008"
   d="M 1076,397 C 1076,265 1032,163 945,90 858,17 733,-20 571,-20 410,-20 286,16 198,89 109,162 65,264 65,395 65,485 91,561 143,623 195,684 265,722 352,737 L 352,741 C 276,758 215,795 168,854 121,913 98,980 98,1057 98,1172 139,1263 221,1330 302,1397 418,1430 567,1430 720,1430 837,1398 919,1333 1000,1268 1041,1175 1041,1055 1041,978 1018,911 972,853 925,795 863,758 785,743 L 785,739 C 876,724 947,687 999,628 1050,568 1076,491 1076,397 Z M 752,1040 C 752,1107 737,1156 706,1187 675,1218 629,1233 567,1233 446,1233 385,1169 385,1040 385,905 446,838 569,838 630,838 676,854 707,885 737,916 752,968 752,1040 Z M 785,420 C 785,567 712,641 565,641 497,641 445,622 409,583 372,544 354,489 354,416 354,333 372,273 408,235 444,197 499,178 573,178 646,178 699,197 734,235 768,273 785,335 785,420 Z"
   id="glyph2-21-8" />
   <glyph
   unicode="2"
   horiz-adv-x="983"
   d="M 71,0 L 71,195 C 108,276 160,354 228,431 295,508 380,588 483,671 582,751 651,817 691,869 730,921 750,972 750,1022 750,1145 688,1206 565,1206 505,1206 459,1190 428,1158 396,1125 375,1077 366,1012 L 83,1028 C 99,1159 148,1258 230,1327 311,1396 422,1430 563,1430 715,1430 832,1395 913,1326 994,1257 1035,1159 1035,1034 1035,968 1022,908 996,855 970,802 937,753 896,708 855,663 810,620 761,581 711,542 663,503 616,466 569,429 527,391 489,353 450,315 422,274 403,231 L 1057,231 1057,0 71,0 Z"
   id="glyph3-55-4" />
  </font><font
       id="EmbeddedFont_1-97-3"
       horiz-adv-x="2048"
       horiz-origin-x="0"
       horiz-origin-y="0"
       vert-origin-x="512"
       vert-origin-y="768"
       vert-adv-y="1024">
   <font-face
   font-family="Liberation Sans embedded"
   units-per-em="2048"
   font-weight="bold"
   font-style="normal"
   ascent="1852"
   descent="423"
   id="font-face2-09-9" />
   <missing-glyph
   horiz-adv-x="2048"
   d="M 0,0 L 2047,0 2047,2047 0,2047 0,0 Z"
   id="missing-glyph2-33-8" />
   <glyph
   unicode="9"
   horiz-adv-x="989"
   d="M 1063,727 C 1063,477 1017,290 926,166 835,42 705,-20 537,-20 413,-20 316,7 246,60 175,113 125,196 96,311 L 360,348 C 386,250 446,201 540,201 619,201 679,239 722,314 764,389 786,501 787,649 762,599 720,560 663,532 605,503 543,489 476,489 352,489 254,531 181,616 108,700 71,814 71,958 71,1106 114,1222 200,1305 285,1388 406,1430 563,1430 732,1430 857,1372 940,1255 1022,1138 1063,962 1063,727 Z M 766,924 C 766,1011 747,1081 709,1133 670,1184 619,1210 556,1210 494,1210 445,1188 410,1143 374,1098 356,1035 356,956 356,878 374,816 409,769 444,722 494,698 557,698 617,698 667,719 707,760 746,801 766,855 766,924 Z"
   id="glyph2-31-8" />
   <glyph
   unicode="2"
   horiz-adv-x="983"
   d="M 71,0 L 71,195 C 108,276 160,354 228,431 295,508 380,588 483,671 582,751 651,817 691,869 730,921 750,972 750,1022 750,1145 688,1206 565,1206 505,1206 459,1190 428,1158 396,1125 375,1077 366,1012 L 83,1028 C 99,1159 148,1258 230,1327 311,1396 422,1430 563,1430 715,1430 832,1395 913,1326 994,1257 1035,1159 1035,1034 1035,968 1022,908 996,855 970,802 937,753 896,708 855,663 810,620 761,581 711,542 663,503 616,466 569,429 527,391 489,353 450,315 422,274 403,231 L 1057,231 1057,0 71,0 Z"
   id="glyph3-35-0" />
  </font><font
       id="EmbeddedFont_1-04-7"
       horiz-adv-x="2048"
       horiz-origin-x="0"
       horiz-origin-y="0"
       vert-origin-x="512"
       vert-origin-y="768"
       vert-adv-y="1024">
   <font-face
   font-family="Liberation Sans embedded"
   units-per-em="2048"
   font-weight="bold"
   font-style="normal"
   ascent="1852"
   descent="423"
   id="font-face2-85-8" />
   <missing-glyph
   horiz-adv-x="2048"
   d="M 0,0 L 2047,0 2047,2047 0,2047 0,0 Z"
   id="missing-glyph2-73-3" />
   <glyph
   unicode="3"
   horiz-adv-x="1015"
   d="M 1065,391 C 1065,259 1022,157 935,85 848,13 725,-23 565,-23 414,-23 293,12 204,82 115,151 62,252 47,383 L 333,408 C 351,273 428,205 564,205 631,205 684,222 721,255 758,288 777,339 777,408 777,471 754,519 709,552 664,585 596,602 507,602 L 409,602 409,829 501,829 C 582,829 642,846 683,879 724,912 744,959 744,1020 744,1078 728,1124 696,1157 663,1190 616,1206 554,1206 496,1206 449,1190 414,1158 378,1126 357,1081 352,1022 L 71,1042 C 86,1163 136,1258 222,1327 308,1396 420,1430 559,1430 706,1430 822,1397 905,1331 988,1264 1029,1172 1029,1055 1029,967 1003,895 952,838 900,781 825,744 728,725 L 728,721 C 836,708 919,673 978,615 1036,556 1065,482 1065,391 Z"
   id="glyph2-303-8" />
   <glyph
   unicode="0"
   horiz-adv-x="971"
   d="M 1055,705 C 1055,467 1014,287 933,164 851,41 728,-20 565,-20 242,-20 81,222 81,705 81,874 99,1011 134,1118 169,1225 222,1303 293,1354 364,1405 457,1430 573,1430 740,1430 862,1370 939,1249 1016,1128 1055,947 1055,705 Z M 773,705 C 773,835 767,936 754,1008 741,1080 721,1132 693,1163 665,1194 624,1210 571,1210 514,1210 472,1194 443,1163 414,1131 393,1079 381,1008 368,936 362,835 362,705 362,576 369,476 382,404 395,331 415,279 444,248 472,217 513,201 567,201 620,201 662,218 691,251 720,284 741,336 754,409 767,482 773,580 773,705 Z"
   id="glyph3-032-3" />
  </font><font
       id="EmbeddedFont_1-22-0"
       horiz-adv-x="2048"
       horiz-origin-x="0"
       horiz-origin-y="0"
       vert-origin-x="512"
       vert-origin-y="768"
       vert-adv-y="1024">
   <font-face
   font-family="Arial Narrow embedded"
   units-per-em="2048"
   font-weight="bold"
   font-style="normal"
   ascent="1905"
   descent="423"
   id="font-face2-20-7" />
   <missing-glyph
   horiz-adv-x="2048"
   d="M 0,0 L 2047,0 2047,2047 0,2047 0,0 Z"
   id="missing-glyph2-02-3" />
   <glyph
   unicode="E"
   horiz-adv-x="911"
   d="M 123,0 L 123,1466 1015,1466 1015,1218 365,1218 365,893 969,893 969,646 365,646 365,248 1037,248 1037,0 123,0 Z"
   id="glyph2-316-4" />
  </font><font
       id="EmbeddedFont_2-9"
       horiz-adv-x="2048"
       horiz-origin-x="0"
       horiz-origin-y="0"
       vert-origin-x="512"
       vert-origin-y="768"
       vert-adv-y="1024">
   <font-face
   font-family="Liberation Sans embedded"
   units-per-em="2048"
   font-weight="bold"
   font-style="normal"
   ascent="1852"
   descent="423"
   id="font-face3-6" />
   <missing-glyph
   horiz-adv-x="2048"
   d="M 0,0 L 2047,0 2047,2047 0,2047 0,0 Z"
   id="missing-glyph3-51" />
   <glyph
   unicode="5"
   horiz-adv-x="1016"
   d="M 1082,469 C 1082,320 1036,201 943,113 850,24 722,-20 560,-20 419,-20 306,12 221,76 136,139 83,231 63,352 L 344,375 C 359,315 385,271 422,244 459,217 506,203 563,203 633,203 689,225 731,270 772,315 793,379 793,463 793,537 773,596 734,641 695,685 640,707 569,707 491,707 427,677 378,616 L 104,616 153,1409 1000,1409 1000,1200 408,1200 385,844 C 453,904 538,934 640,934 774,934 881,892 962,809 1042,726 1082,612 1082,469 Z"
   id="glyph3-77-0" />
   <glyph
   unicode="1"
   horiz-adv-x="950"
   d="M 129,0 L 129,209 478,209 478,1170 140,959 140,1180 493,1409 759,1409 759,209 1082,209 1082,0 129,0 Z"
   id="glyph4-9" />
  </font><font
       id="EmbeddedFont_1-17-8"
       horiz-adv-x="2048"
       horiz-origin-x="0"
       horiz-origin-y="0"
       vert-origin-x="512"
       vert-origin-y="768"
       vert-adv-y="1024">
   <font-face
   font-family="Arial Narrow embedded"
   units-per-em="2048"
   font-weight="bold"
   font-style="normal"
   ascent="1905"
   descent="423"
   id="font-face2-94-3" />
   <missing-glyph
   horiz-adv-x="2048"
   d="M 0,0 L 2047,0 2047,2047 0,2047 0,0 Z"
   id="missing-glyph2-98-4" />
   <glyph
   unicode="E"
   horiz-adv-x="911"
   d="M 123,0 L 123,1466 1015,1466 1015,1218 365,1218 365,893 969,893 969,646 365,646 365,248 1037,248 1037,0 123,0 Z"
   id="glyph2-00-8" />
  </font><font
       id="EmbeddedFont_2-8-4"
       horiz-adv-x="2048"
       horiz-origin-x="0"
       horiz-origin-y="0"
       vert-origin-x="512"
       vert-origin-y="768"
       vert-adv-y="1024">
   <font-face
   font-family="Liberation Sans embedded"
   units-per-em="2048"
   font-weight="bold"
   font-style="normal"
   ascent="1852"
   descent="423"
   id="font-face3-5-9" />
   <missing-glyph
   horiz-adv-x="2048"
   d="M 0,0 L 2047,0 2047,2047 0,2047 0,0 Z"
   id="missing-glyph3-0-9" />
   <glyph
   unicode="2"
   horiz-adv-x="983"
   d="M 71,0 L 71,195 C 108,276 160,354 228,431 295,508 380,588 483,671 582,751 651,817 691,869 730,921 750,972 750,1022 750,1145 688,1206 565,1206 505,1206 459,1190 428,1158 396,1125 375,1077 366,1012 L 83,1028 C 99,1159 148,1258 230,1327 311,1396 422,1430 563,1430 715,1430 832,1395 913,1326 994,1257 1035,1159 1035,1034 1035,968 1022,908 996,855 970,802 937,753 896,708 855,663 810,620 761,581 711,542 663,503 616,466 569,429 527,391 489,353 450,315 422,274 403,231 L 1057,231 1057,0 71,0 Z"
   id="glyph3-89-2" />
   <glyph
   unicode="0"
   horiz-adv-x="971"
   d="M 1055,705 C 1055,467 1014,287 933,164 851,41 728,-20 565,-20 242,-20 81,222 81,705 81,874 99,1011 134,1118 169,1225 222,1303 293,1354 364,1405 457,1430 573,1430 740,1430 862,1370 939,1249 1016,1128 1055,947 1055,705 Z M 773,705 C 773,835 767,936 754,1008 741,1080 721,1132 693,1163 665,1194 624,1210 571,1210 514,1210 472,1194 443,1163 414,1131 393,1079 381,1008 368,936 362,835 362,705 362,576 369,476 382,404 395,331 415,279 444,248 472,217 513,201 567,201 620,201 662,218 691,251 720,284 741,336 754,409 767,482 773,580 773,705 Z"
   id="glyph4-2-5" />
  </font><font
       id="EmbeddedFont_1-45-3"
       horiz-adv-x="2048"
       horiz-origin-x="0"
       horiz-origin-y="0"
       vert-origin-x="512"
       vert-origin-y="768"
       vert-adv-y="1024">
   <font-face
   font-family="Arial Narrow embedded"
   units-per-em="2048"
   font-weight="bold"
   font-style="normal"
   ascent="1905"
   descent="423"
   id="font-face2-6-3" />
   <missing-glyph
   horiz-adv-x="2048"
   d="M 0,0 L 2047,0 2047,2047 0,2047 0,0 Z"
   id="missing-glyph2-89-7" />
   <glyph
   unicode="E"
   horiz-adv-x="911"
   d="M 123,0 L 123,1466 1015,1466 1015,1218 365,1218 365,893 969,893 969,646 365,646 365,248 1037,248 1037,0 123,0 Z"
   id="glyph2-899-4" />
  </font><font
       id="EmbeddedFont_2-0-3"
       horiz-adv-x="2048"
       horiz-origin-x="0"
       horiz-origin-y="0"
       vert-origin-x="512"
       vert-origin-y="768"
       vert-adv-y="1024">
   <font-face
   font-family="Liberation Sans embedded"
   units-per-em="2048"
   font-weight="bold"
   font-style="normal"
   ascent="1852"
   descent="423"
   id="font-face3-8-8" />
   <missing-glyph
   horiz-adv-x="2048"
   d="M 0,0 L 2047,0 2047,2047 0,2047 0,0 Z"
   id="missing-glyph3-4-0" />
   <glyph
   unicode="2"
   horiz-adv-x="983"
   d="M 71,0 L 71,195 C 108,276 160,354 228,431 295,508 380,588 483,671 582,751 651,817 691,869 730,921 750,972 750,1022 750,1145 688,1206 565,1206 505,1206 459,1190 428,1158 396,1125 375,1077 366,1012 L 83,1028 C 99,1159 148,1258 230,1327 311,1396 422,1430 563,1430 715,1430 832,1395 913,1326 994,1257 1035,1159 1035,1034 1035,968 1022,908 996,855 970,802 937,753 896,708 855,663 810,620 761,581 711,542 663,503 616,466 569,429 527,391 489,353 450,315 422,274 403,231 L 1057,231 1057,0 71,0 Z"
   id="glyph3-56-8" />
  </font><font
       id="EmbeddedFont_1-525-6"
       horiz-adv-x="2048"
       horiz-origin-x="0"
       horiz-origin-y="0"
       vert-origin-x="512"
       vert-origin-y="768"
       vert-adv-y="1024">
   <font-face
   font-family="Arial Narrow embedded"
   units-per-em="2048"
   font-weight="bold"
   font-style="normal"
   ascent="1905"
   descent="423"
   id="font-face2-22-8" />
   <missing-glyph
   horiz-adv-x="2048"
   d="M 0,0 L 2047,0 2047,2047 0,2047 0,0 Z"
   id="missing-glyph2-30-1" />
   <glyph
   unicode="E"
   horiz-adv-x="911"
   d="M 123,0 L 123,1466 1015,1466 1015,1218 365,1218 365,893 969,893 969,646 365,646 365,248 1037,248 1037,0 123,0 Z"
   id="glyph2-872-9" />
  </font><font
       id="EmbeddedFont_2-3-8"
       horiz-adv-x="2048"
       horiz-origin-x="0"
       horiz-origin-y="0"
       vert-origin-x="512"
       vert-origin-y="768"
       vert-adv-y="1024">
   <font-face
   font-family="Liberation Sans embedded"
   units-per-em="2048"
   font-weight="bold"
   font-style="normal"
   ascent="1852"
   descent="423"
   id="font-face3-7-9" />
   <missing-glyph
   horiz-adv-x="2048"
   d="M 0,0 L 2047,0 2047,2047 0,2047 0,0 Z"
   id="missing-glyph3-5-7" />
   <glyph
   unicode="4"
   horiz-adv-x="1094"
   d="M 940,287 L 940,0 672,0 672,287 31,287 31,498 626,1409 940,1409 940,496 1128,496 1128,287 940,287 Z M 672,957 C 672,993 673,1032 676,1074 678,1116 680,1143 681,1155 664,1118 632,1064 587,993 L 260,496 672,496 672,957 Z"
   id="glyph3-41-2" />
   <glyph
   unicode="2"
   horiz-adv-x="983"
   d="M 71,0 L 71,195 C 108,276 160,354 228,431 295,508 380,588 483,671 582,751 651,817 691,869 730,921 750,972 750,1022 750,1145 688,1206 565,1206 505,1206 459,1190 428,1158 396,1125 375,1077 366,1012 L 83,1028 C 99,1159 148,1258 230,1327 311,1396 422,1430 563,1430 715,1430 832,1395 913,1326 994,1257 1035,1159 1035,1034 1035,968 1022,908 996,855 970,802 937,753 896,708 855,663 810,620 761,581 711,542 663,503 616,466 569,429 527,391 489,353 450,315 422,274 403,231 L 1057,231 1057,0 71,0 Z"
   id="glyph4-8-2" />
  </font><font
       id="EmbeddedFont_1-68-8"
       horiz-adv-x="2048"
       horiz-origin-x="0"
       horiz-origin-y="0"
       vert-origin-x="512"
       vert-origin-y="768"
       vert-adv-y="1024">
   <font-face
   font-family="Liberation Sans embedded"
   units-per-em="2048"
   font-weight="bold"
   font-style="normal"
   ascent="1852"
   descent="423"
   id="font-face2-14-9" />
   <missing-glyph
   horiz-adv-x="2048"
   d="M 0,0 L 2047,0 2047,2047 0,2047 0,0 Z"
   id="missing-glyph2-76-0" />
   <glyph
   unicode="2"
   horiz-adv-x="983"
   d="M 71,0 L 71,195 C 108,276 160,354 228,431 295,508 380,588 483,671 582,751 651,817 691,869 730,921 750,972 750,1022 750,1145 688,1206 565,1206 505,1206 459,1190 428,1158 396,1125 375,1077 366,1012 L 83,1028 C 99,1159 148,1258 230,1327 311,1396 422,1430 563,1430 715,1430 832,1395 913,1326 994,1257 1035,1159 1035,1034 1035,968 1022,908 996,855 970,802 937,753 896,708 855,663 810,620 761,581 711,542 663,503 616,466 569,429 527,391 489,353 450,315 422,274 403,231 L 1057,231 1057,0 71,0 Z"
   id="glyph2-49-7" />
  </font><font
       id="EmbeddedFont_1-27-5"
       horiz-adv-x="2048"
       horiz-origin-x="0"
       horiz-origin-y="0"
       vert-origin-x="512"
       vert-origin-y="768"
       vert-adv-y="1024">
   <font-face
   font-family="Liberation Sans embedded"
   units-per-em="2048"
   font-weight="bold"
   font-style="normal"
   ascent="1852"
   descent="423"
   id="font-face2-45-8" />
   <missing-glyph
   horiz-adv-x="2048"
   d="M 0,0 L 2047,0 2047,2047 0,2047 0,0 Z"
   id="missing-glyph2-03-6" />
   <glyph
   unicode="3"
   horiz-adv-x="1015"
   d="M 1065,391 C 1065,259 1022,157 935,85 848,13 725,-23 565,-23 414,-23 293,12 204,82 115,151 62,252 47,383 L 333,408 C 351,273 428,205 564,205 631,205 684,222 721,255 758,288 777,339 777,408 777,471 754,519 709,552 664,585 596,602 507,602 L 409,602 409,829 501,829 C 582,829 642,846 683,879 724,912 744,959 744,1020 744,1078 728,1124 696,1157 663,1190 616,1206 554,1206 496,1206 449,1190 414,1158 378,1126 357,1081 352,1022 L 71,1042 C 86,1163 136,1258 222,1327 308,1396 420,1430 559,1430 706,1430 822,1397 905,1331 988,1264 1029,1172 1029,1055 1029,967 1003,895 952,838 900,781 825,744 728,725 L 728,721 C 836,708 919,673 978,615 1036,556 1065,482 1065,391 Z"
   id="glyph2-29-1" />
   <glyph
   unicode="2"
   horiz-adv-x="983"
   d="M 71,0 L 71,195 C 108,276 160,354 228,431 295,508 380,588 483,671 582,751 651,817 691,869 730,921 750,972 750,1022 750,1145 688,1206 565,1206 505,1206 459,1190 428,1158 396,1125 375,1077 366,1012 L 83,1028 C 99,1159 148,1258 230,1327 311,1396 422,1430 563,1430 715,1430 832,1395 913,1326 994,1257 1035,1159 1035,1034 1035,968 1022,908 996,855 970,802 937,753 896,708 855,663 810,620 761,581 711,542 663,503 616,466 569,429 527,391 489,353 450,315 422,274 403,231 L 1057,231 1057,0 71,0 Z"
   id="glyph3-78-2" />
  </font><font
       id="EmbeddedFont_1-703-5"
       horiz-adv-x="2048"
       horiz-origin-x="0"
       horiz-origin-y="0"
       vert-origin-x="512"
       vert-origin-y="768"
       vert-adv-y="1024">
   <font-face
   font-family="Liberation Sans embedded"
   units-per-em="2048"
   font-weight="bold"
   font-style="normal"
   ascent="1852"
   descent="423"
   id="font-face2-44-8" />
   <missing-glyph
   horiz-adv-x="2048"
   d="M 0,0 L 2047,0 2047,2047 0,2047 0,0 Z"
   id="missing-glyph2-67-6" />
   <glyph
   unicode="4"
   horiz-adv-x="1094"
   d="M 940,287 L 940,0 672,0 672,287 31,287 31,498 626,1409 940,1409 940,496 1128,496 1128,287 940,287 Z M 672,957 C 672,993 673,1032 676,1074 678,1116 680,1143 681,1155 664,1118 632,1064 587,993 L 260,496 672,496 672,957 Z"
   id="glyph2-18-2" />
   <glyph
   unicode="2"
   horiz-adv-x="983"
   d="M 71,0 L 71,195 C 108,276 160,354 228,431 295,508 380,588 483,671 582,751 651,817 691,869 730,921 750,972 750,1022 750,1145 688,1206 565,1206 505,1206 459,1190 428,1158 396,1125 375,1077 366,1012 L 83,1028 C 99,1159 148,1258 230,1327 311,1396 422,1430 563,1430 715,1430 832,1395 913,1326 994,1257 1035,1159 1035,1034 1035,968 1022,908 996,855 970,802 937,753 896,708 855,663 810,620 761,581 711,542 663,503 616,466 569,429 527,391 489,353 450,315 422,274 403,231 L 1057,231 1057,0 71,0 Z"
   id="glyph3-1-6" />
  </font><font
       id="EmbeddedFont_1-53"
       horiz-adv-x="2048"
       horiz-origin-x="0"
       horiz-origin-y="0"
       vert-origin-x="512"
       vert-origin-y="768"
       vert-adv-y="1024">
   <font-face
   font-family="Liberation Sans embedded"
   units-per-em="2048"
   font-weight="bold"
   font-style="normal"
   ascent="1852"
   descent="423"
   id="font-face2-92" />
   <missing-glyph
   horiz-adv-x="2048"
   d="M 0,0 L 2047,0 2047,2047 0,2047 0,0 Z"
   id="missing-glyph2-46" />
   <glyph
   unicode="1"
   horiz-adv-x="950"
   d="M 129,0 L 129,209 478,209 478,1170 140,959 140,1180 493,1409 759,1409 759,209 1082,209 1082,0 129,0 Z"
   id="glyph2-182" />
  </font><font
       id="EmbeddedFont_1-61"
       horiz-adv-x="2048"
       horiz-origin-x="0"
       horiz-origin-y="0"
       vert-origin-x="512"
       vert-origin-y="768"
       vert-adv-y="1024">
   <font-face
   font-family="Liberation Sans embedded"
   units-per-em="2048"
   font-weight="bold"
   font-style="normal"
   ascent="1852"
   descent="423"
   id="font-face2-157" />
   <missing-glyph
   horiz-adv-x="2048"
   d="M 0,0 L 2047,0 2047,2047 0,2047 0,0 Z"
   id="missing-glyph2-48" />
   <glyph
   unicode="2"
   horiz-adv-x="983"
   d="M 71,0 L 71,195 C 108,276 160,354 228,431 295,508 380,588 483,671 582,751 651,817 691,869 730,921 750,972 750,1022 750,1145 688,1206 565,1206 505,1206 459,1190 428,1158 396,1125 375,1077 366,1012 L 83,1028 C 99,1159 148,1258 230,1327 311,1396 422,1430 563,1430 715,1430 832,1395 913,1326 994,1257 1035,1159 1035,1034 1035,968 1022,908 996,855 970,802 937,753 896,708 855,663 810,620 761,581 711,542 663,503 616,466 569,429 527,391 489,353 450,315 422,274 403,231 L 1057,231 1057,0 71,0 Z"
   id="glyph2-56" />
   <glyph
   unicode="1"
   horiz-adv-x="950"
   d="M 129,0 L 129,209 478,209 478,1170 140,959 140,1180 493,1409 759,1409 759,209 1082,209 1082,0 129,0 Z"
   id="glyph3-49" />
  </font><font
       id="EmbeddedFont_1-03"
       horiz-adv-x="2048"
       horiz-origin-x="0"
       horiz-origin-y="0"
       vert-origin-x="512"
       vert-origin-y="768"
       vert-adv-y="1024">
   <font-face
   font-family="Liberation Sans embedded"
   units-per-em="2048"
   font-weight="bold"
   font-style="normal"
   ascent="1852"
   descent="423"
   id="font-face2-52" />
   <missing-glyph
   horiz-adv-x="2048"
   d="M 0,0 L 2047,0 2047,2047 0,2047 0,0 Z"
   id="missing-glyph2-91" />
   <glyph
   unicode="6"
   horiz-adv-x="987"
   d="M 1065,461 C 1065,311 1023,193 939,108 855,23 739,-20 591,-20 425,-20 298,38 209,155 120,271 75,443 75,672 75,923 120,1113 211,1240 301,1367 430,1430 598,1430 717,1430 812,1404 881,1351 950,1298 998,1217 1027,1106 L 762,1069 C 737,1162 680,1208 592,1208 517,1208 458,1170 415,1095 372,1020 350,905 350,752 380,802 422,840 475,867 528,894 589,907 656,907 782,907 882,867 955,787 1028,707 1065,598 1065,461 Z M 783,453 C 783,533 765,594 728,637 691,679 640,700 575,700 513,700 463,680 426,641 389,601 370,548 370,483 370,401 390,333 429,280 468,226 519,199 582,199 645,199 695,222 730,267 765,312 783,374 783,453 Z"
   id="glyph2-26" />
   <glyph
   unicode="5"
   horiz-adv-x="1016"
   d="M 1082,469 C 1082,320 1036,201 943,113 850,24 722,-20 560,-20 419,-20 306,12 221,76 136,139 83,231 63,352 L 344,375 C 359,315 385,271 422,244 459,217 506,203 563,203 633,203 689,225 731,270 772,315 793,379 793,463 793,537 773,596 734,641 695,685 640,707 569,707 491,707 427,677 378,616 L 104,616 153,1409 1000,1409 1000,1200 408,1200 385,844 C 453,904 538,934 640,934 774,934 881,892 962,809 1042,726 1082,612 1082,469 Z"
   id="glyph3-17" />
   <glyph
   unicode="1"
   horiz-adv-x="950"
   d="M 129,0 L 129,209 478,209 478,1170 140,959 140,1180 493,1409 759,1409 759,209 1082,209 1082,0 129,0 Z"
   id="glyph4-0" />
  </font><font
       id="EmbeddedFont_1-5-21"
       horiz-adv-x="2048"
       horiz-origin-x="0"
       horiz-origin-y="0"
       vert-origin-x="512"
       vert-origin-y="768"
       vert-adv-y="1024">
   <font-face
   font-family="Liberation Sans embedded"
   units-per-em="2048"
   font-weight="bold"
   font-style="normal"
   ascent="1852"
   descent="423"
   id="font-face2-1-3" />
   <missing-glyph
   horiz-adv-x="2048"
   d="M 0,0 L 2047,0 2047,2047 0,2047 0,0 Z"
   id="missing-glyph2-7-1" />
   </font>
</defs>
</svg>
